<?xml version="1.0" standalone="no"?> <!DOCTYPE svg PUBLIC "-//W3C//DTD SVG 1.0//EN" "http://www.w3.org/TR/2001/REC-SVG-20010904/DTD/svg10.dtd" > <svg xmlns="http://www.w3.org/2000/svg" width="100%" height="100%">
<defs >
<font horiz-adv-x="547" ><font-face
    font-family=""
    units-per-em="1000"
    panose-1="2 6 5 3 5 5 3 6 8 3"
    ascent="797"
    descent="-203"
    alphabetic="0" />
<missing-glyph horiz-adv-x="500" />
<glyph unicode=" " glyph-name="space" horiz-adv-x="252" />
<glyph unicode="!" glyph-name="exclam" horiz-adv-x="316" d="M106 721H209L198 228H118L106 721ZM101 118H216V0H101V118Z" />
<glyph unicode="&quot;" glyph-name="quotedbl" horiz-adv-x="430" d="M254 721H360L347 473H267L254 721ZM70 721H176L163 473H83L70 721Z" />
<glyph unicode="#" glyph-name="numbersign" horiz-adv-x="564" d="M62 527H173L204 721H276L246 527H373L404 721H477L446 527H528V441H432L409 292H501V206H395L363 0H290L322 206H195L163 0H90L122 206H36V292H136L159 441H62V527ZM209 292H336L359 441H232L209 292Z" />
<glyph unicode="$" glyph-name="dollar" horiz-adv-x="546" d="M190 -10Q144 -5 110 7T49 35V113Q81 96 118 84T200 66L236 336L208 346Q172 359 144 374T95 412T65 464T54 539Q54 581 68 617T110 678T181 718T280 733H288L301 826H368L355 727Q387 721 410 712T453
694V616Q431 626 404 635T345 651L312 402L319 400Q358 387 390 371T444 332T479 277T491 199Q491 152 477 113T434 46T361 2T256 -14L238 -153H171L190 -10ZM399 188Q399 212 394 231T378 264T347 290T300 313L267 63Q399 71 399 188ZM144 548Q144 525 148 507T163
475T193 448T245 425L247 424L278 657H276Q213 657 179 630T144 548Z" />
<glyph unicode="%" glyph-name="percent" horiz-adv-x="950" d="M728 52Q766 52 787 77T809 160V220Q809 277 787 302T728 328Q691 328 669 303T646 221V161Q646 102 668 77T728 52ZM728 389Q805 389 849 343T893 211V177Q893 91 849 41T728 -9Q652 -9 607 36T562
170V204Q562 289 607 339T728 389ZM223 335Q147 335 102 380T57 514V548Q57 633 102 683T223 733Q300 733 344 687T388 555V521Q388 435 344 385T223 335ZM676 742H758L266 -42H184L676 742ZM223 396Q261 396 282 421T304 504V564Q304 621 282 646T223 672Q186
672 164 647T141 565V505Q141 446 163 421T223 396Z" />
<glyph unicode="&amp;" glyph-name="ampersand" horiz-adv-x="680" d="M294 -12Q180 -12 114 40T48 196Q48 236 60 267T93 322T143 366T205 403Q172 444 155 480T138 560Q138 607 155 640T199 693T260 723T329 733Q366 733 398 723T455 692T494 642T509 573Q509
533 496 504T459 451T407 411T346 378L499 191Q518 226 528 268T542 359H630Q625 295 605 237T550 129L656 0H541L489 62Q449 27 400 8T294 -12ZM294 66Q341 66 377 79T443 118L248 352Q205 327 177 294T148 206Q148 142 185 104T294 66ZM237 565Q237 533 248 509T282
456L305 427Q324 438 343 451T379 482T404 522T414 571Q414 614 388 636T328 658Q292 658 265 636T237 565Z" />
<glyph unicode="&apos;" glyph-name="quotesingle" horiz-adv-x="246" d="M70 721H176L163 473H83L70 721Z" />
<glyph unicode="(" glyph-name="parenleft" horiz-adv-x="356" d="M254 -125Q216 -88 182 -43T123 56T82 170T66 303V341Q66 412 81 473T122 588T182 686T254 769H334Q298 729 267 682T212 583T175 472T161 350V302Q161 241 174 182T211 68T266 -36T334 -125H254V-125Z" />
<glyph unicode=")" glyph-name="parenright" horiz-adv-x="356" d="M102 -125H22Q58 -85 89 -36T144 68T181 182T195 302V350Q195 413 182 471T145 582T90 682T22 769H102Q139 731 173 687T233 589T274 474T290 341V303Q290 232 275 171T234 56T174 -42T102 -125Z" />
<glyph unicode="*" glyph-name="asterisk" horiz-adv-x="465" d="M215 512L97 412L56 486L199 539L56 590L97 664L215 564L191 721H273L250 564L368 664L409 590L265 539L409 486L368 412L250 512L273 355H191L215 512Z" />
<glyph unicode="+" glyph-name="plus" horiz-adv-x="583" d="M250 287H57V367H250V570H333V367H526V287H333V84H250V287Z" />
<glyph unicode="," glyph-name="comma" horiz-adv-x="291" d="M93 118H214L161 -140H75L93 118Z" />
<glyph unicode="-" glyph-name="hyphen" horiz-adv-x="418" d="M75 337H343V258H75V337Z" />
<glyph unicode="." glyph-name="period" horiz-adv-x="291" d="M88 118H203V0H88V118Z" />
<glyph unicode="/" glyph-name="slash" horiz-adv-x="395" d="M281 769H362L96 -125H15L281 769Z" />
<glyph unicode="0" glyph-name="zero" horiz-adv-x="678" d="M341 -14Q283 -14 232 5T143 65T83 169T61 322V389Q61 482 84 547T146 654T235 714T342 733Q397 733 447 715T535 656T595 552T617 396V328Q617 236 596 171T537 65T450 5T341 -14ZM341 66Q434 66 477
125T520 315V397Q520 521 478 587T342 654Q248 654 205 591T162 403V321Q162 196 204 131T341 66Z" />
<glyph unicode="1" glyph-name="one" horiz-adv-x="419" d="M191 618L31 596V652L231 727H284V0H191V618Z" />
<glyph unicode="2" glyph-name="two" horiz-adv-x="549" d="M45 69L213 238Q253 278 284 311T336 375T369 436T380 501V519Q380 591 341 621T228 652Q179 652 136 641T59 613V688Q98 710 145 721T253 733Q362 733 420 678T479 525V504Q479 463 466 427T428 353T364
276T277 192L158 83V80H493V0H45V69Z" />
<glyph unicode="3" glyph-name="three" horiz-adv-x="541" d="M224 -11Q159 -11 115 2T39 34V109Q76 92 118 81T204 70Q289 70 336 101T383 205Q383 274 341 304T220 335H155V415H208Q277 415 317 445T358 539Q358 604 321 628T219 652Q169 652 136 644T68 623V698Q105
716 150 724T243 733Q340 733 397 686T455 553Q455 488 421 446T314 383V378Q393 364 437 323T482 201Q482 150 464 111T413 44T331 3T224 -11Z" />
<glyph unicode="4" glyph-name="four" horiz-adv-x="606" d="M355 196H23V266L369 721H447V274H583V196H447V0H355V196ZM98 264Q121 266 144 268Q164 270 186 271T227 273H355V443Q355 466 356 493T360 544Q362 571 365 599H361Q345 578 330 556Q316 537 302 516T273
477L194 373Q181 356 165 338T134 303Q116 285 98 267V264Z" />
<glyph unicode="5" glyph-name="five" horiz-adv-x="542" d="M228 -11Q163 -11 117 1T39 34V109Q75 91 117 81T208 70Q289 70 336 106T383 223Q383 264 372 292T338 337T283 361T208 368Q166 368 130 363T68 349L95 721H461V641H171L155 428Q172 436 193 441T250
447Q302 447 344 434T418 394T466 324T483 224Q483 170 466 127T415 53T335 6T228 -11Z" />
<glyph unicode="6" glyph-name="six" horiz-adv-x="625" d="M325 -14Q262 -14 213 8T130 71T79 170T61 299V365Q61 471 88 542T161 655T264 715T385 733Q482 733 528 707V633Q508 640 474 646T402 652Q358 652 316 644T240 608T186 529T162 392Q192 415 240 432T349
450Q397 450 437 437T507 396T552 329T569 233Q569 179 553 134T506 56T430 5T325 -14ZM324 66Q396 66 433 103T470 224Q470 269 459 297T429 342T382 364T323 370Q271 370 231 356T161 322V297Q161 188 198 127T324 66Z" />
<glyph unicode="7" glyph-name="seven" horiz-adv-x="518" d="M328 493Q341 521 354 546T379 592Q392 615 405 636V641H35V721H486V646L205 0H101L328 493Z" />
<glyph unicode="8" glyph-name="eight" horiz-adv-x="633" d="M317 -14Q196 -14 128 33T59 180Q59 217 71 246T105 297T155 338T214 370V375Q185 388 161 403T118 439T90 486T80 548Q80 590 96 624T143 682T216 720T312 733Q364 733 407 722T481 689T528 633T545
554Q545 521 535 495T506 448T462 408T408 374V369Q441 357 471 344T524 311T560 262T574 189Q574 92 508 39T317 -14ZM314 64Q387 64 430 91T474 179Q474 213 462 235T426 274T365 305T276 337Q252 325 230 311T192 279T165 237T155 184Q155 119 198 92T314 64ZM341
406Q366 420 386 434T419 465T440 502T448 549Q448 597 415 626T313 656Q251 656 215 630T179 552Q179 525 190 505T222 467T273 436T341 406Z" />
<glyph unicode="9" glyph-name="nine" horiz-adv-x="625" d="M240 -14Q192 -14 154 -6T92 16V90Q112 82 148 75T223 68Q276 68 320 78T396 116T445 195T463 328Q433 305 386 287T278 269Q231 269 191 281T120 319T73 388T56 489Q56 601 119 667T301 733Q358 733
406 716T489 662T544 566T564 422V352Q564 246 539 176T471 63T368 4T240 -14ZM302 349Q354 349 394 363T464 397V424Q464 544 423 599T302 654Q227 654 191 617T155 498Q155 451 166 422T196 376T243 355T302 349Z" />
<glyph unicode=":" glyph-name="colon" horiz-adv-x="301" d="M93 420H208V302H93V420ZM93 118H208V0H93V118Z" />
<glyph unicode=";" glyph-name="semicolon" horiz-adv-x="301" d="M98 118H219L166 -140H80L98 118ZM93 420H208V302H93V420Z" />
<glyph unicode="&lt;" glyph-name="less" horiz-adv-x="578" d="M71 295V369L496 576V487L167 332L496 180V88L71 295Z" />
<glyph unicode="=" glyph-name="equal" horiz-adv-x="602" d="M78 448H524V371H78V448ZM78 244H524V167H78V244Z" />
<glyph unicode="&gt;" glyph-name="greater" horiz-adv-x="578" d="M82 177L411 332L82 484V576L507 369V295L82 88V177Z" />
<glyph unicode="?" glyph-name="question" horiz-adv-x="447" d="M133 275Q133 303 140 324T160 363T194 399T240 439Q257 453 269 465T288 490T299 520T303 560Q303 615 270 634T177 654Q154 654 136 652T101 647T70 639T37 628V702Q73 718 111 725T199 733Q240
733 277 724T341 695T385 643T402 562Q402 529 396 506T378 463T345 424T295 381Q277 366 263 354T239 330T224 303T218 269V228H133V275ZM120 118H235V0H120V118Z" />
<glyph unicode="@" glyph-name="at" horiz-adv-x="935" d="M469 -161Q371 -161 295 -135T167 -59T87 63T59 227Q59 318 88 404T174 558T315 666T511 707Q596 707 664 680T780 604T853 488T879 343Q879 270 860 216T809 125T734 71T645 53Q598 53 570 71T534 114H527Q506
90 475 72T406 53Q341 53 311 97T280 212Q280 272 295 321T338 406T402 460T484 479Q516 479 540 468T578 443H582L588 471H672L616 168Q612 145 622 132T657 119Q685 119 711 131T758 170T790 238T803 337Q803 404 785 460T731 556T639 618T509 640Q417 640 347
608T230 520T159 389T135 228Q135 153 155 93T218 -9T323 -73T470 -96Q507 -96 541 -92T604 -82T658 -68T700 -55V-114Q654 -134 596 -147T469 -161ZM430 123Q461 123 486 137T528 168L565 375Q554 389 533 398T483 407Q426 407 398 354T370 213Q370 167 383 145T430
123Z" />
<glyph unicode="A" glyph-name="A" horiz-adv-x="640" d="M275 721H366L616 0H519L450 203H178L109 0H21L275 721ZM205 283H422L371 434Q360 463 351 498T333 565Q324 601 316 636H313Q305 601 295 565Q287 534 277 499T256 434L205 283Z" />
<glyph unicode="B" glyph-name="B" horiz-adv-x="620" d="M90 721H320Q382 721 424 709T493 673T530 615T541 539Q541 485 516 445T425 383V379Q492 366 532 325T572 205Q572 160 559 123T517 58T444 16T339 0H90V721ZM333 79Q408 79 440 111T473 209Q473 278
438 306T327 335H183V79H333ZM305 411Q337 411 363 416T407 435T435 470T445 526Q445 593 414 617T312 641H183V411H305Z" />
<glyph unicode="C" glyph-name="C" horiz-adv-x="594" d="M361 -12Q289 -12 232 8T134 71T71 177T49 330V395Q49 489 75 553T145 658T248 715T375 733Q432 733 474 723T550 694V615Q505 632 464 642T369 652Q321 652 281 639T212 598T166 523T149 411V332Q149
206 201 138T373 69Q438 69 481 83T558 114V34Q520 12 471 0T361 -12Z" />
<glyph unicode="D" glyph-name="D" horiz-adv-x="687" d="M90 721H314Q475 721 556 643T638 401V340Q638 259 620 196T563 90T463 23T316 0H90V721ZM318 81Q378 81 419 94T487 137T526 213T538 325V401Q538 470 524 516T480 589T408 628T306 640H183V81H318Z" />
<glyph unicode="E" glyph-name="E" horiz-adv-x="581" d="M90 721H513V641H183V412H437V332H183V80H516V0H90V721Z" />
<glyph unicode="F" glyph-name="F" horiz-adv-x="544" d="M90 721H502V641H183V398H429V318H183V0H90V721Z" />
<glyph unicode="G" glyph-name="G" horiz-adv-x="675" d="M379 -12Q304 -12 244 7T140 66T73 170T49 324V385Q49 485 77 551T151 658T259 716T387 733Q453 733 497 720T574 690V608Q542 623 497 637T380 652Q315 652 271 631T199 575T161 495T149 400V326Q149
270 159 223T195 142T267 88T382 68Q417 68 451 73T508 87V275H361V354H601V29Q560 12 504 0T379 -12Z" />
<glyph unicode="H" glyph-name="H" horiz-adv-x="708" d="M90 721H183V413H525V721H618V0H525V333H183V0H90V721Z" />
<glyph unicode="I" glyph-name="I" horiz-adv-x="285" d="M96 721H189V0H96V721Z" />
<glyph unicode="J" glyph-name="J" horiz-adv-x="463" d="M183 -7Q138 -7 107 0T47 21V97Q71 88 102 81T175 74Q234 74 259 104T284 190V721H378V187Q378 146 367 111T333 50T272 8T183 -7Z" />
<glyph unicode="K" glyph-name="K" horiz-adv-x="621" d="M212 368L484 721H584L318 379L598 0H488L212 368ZM90 721H183V0H90V721Z" />
<glyph unicode="L" glyph-name="L" horiz-adv-x="535" d="M90 721H183V80H497V0H90V721Z" />
<glyph unicode="M" glyph-name="M" horiz-adv-x="845" d="M90 721H227L350 348Q363 309 375 260T399 167Q411 116 422 63H425Q436 115 448 166Q459 210 471 259T497 348L619 721H755V0H663V374Q663 414 664 465T668 561Q671 614 674 668H671Q657 614 642 562Q629
517 615 468T587 379L462 0H374L250 379Q237 418 223 467T195 562Q180 614 166 668H163Q166 614 169 561Q171 516 173 465T175 374V0H90V721Z" />
<glyph unicode="N" glyph-name="N" horiz-adv-x="704" d="M90 721H200L420 343Q438 311 458 273T496 200Q516 160 536 120H539Q536 164 534 210Q532 248 531 293T529 376V721H614V0H517L282 408Q263 440 244 478T207 551Q188 591 168 631H165Q167 587 170 543Q172
505 173 462T175 382V0H90V721Z" />
<glyph unicode="O" glyph-name="O" horiz-adv-x="708" d="M353 -12Q282 -12 226 10T131 75T70 182T49 330V391Q49 471 70 534T131 642T228 709T357 733Q427 733 483 711T578 646T638 538T659 390V329Q659 249 638 186T578 79T481 12T353 -12ZM356 66Q410 66 448
85T511 137T547 215T559 314V389Q559 448 549 497T515 581T451 635T352 655Q298 655 260 637T197 585T161 507T149 408V333Q149 274 159 225T193 140T257 86T356 66Z" />
<glyph unicode="P" glyph-name="P" horiz-adv-x="588" d="M90 721H324Q442 721 497 665T553 506Q553 397 494 341T333 284H183V0H90V721ZM312 363Q392 363 423 396T454 499Q454 537 447 564T424 608T381 633T314 641H183V363H312Z" />
<glyph unicode="Q" glyph-name="Q" horiz-adv-x="708" d="M277 -6Q163 26 106 107T49 330V391Q49 471 69 534T129 642T225 709T357 733Q502 733 580 646T659 390V329Q659 200 610 124T447 20V16L725 -44L704 -128L277 -6ZM356 63Q410 63 448 82T511 135T547 215T559
314V389Q559 448 549 497T515 581T451 635T352 655Q298 655 260 637T197 585T161 507T149 408V333Q149 274 159 225T193 139T257 83T356 63Z" />
<glyph unicode="R" glyph-name="R" horiz-adv-x="617" d="M90 721H307Q425 721 481 670T537 516Q537 438 502 395T403 328V322L588 0H482L310 308H183V0H90V721ZM301 380Q378 380 407 412T437 514Q437 581 407 611T300 641H183V380H301Z" />
<glyph unicode="S" glyph-name="S" horiz-adv-x="535" d="M249 -14Q182 -14 132 0T45 34V114Q87 93 137 81T244 68Q322 68 357 101T393 191Q393 217 387 236T368 269T334 295T281 317L207 342Q171 354 143 370T95 410T65 465T54 539Q54 581 68 617T110 678T181
718T279 733Q343 733 383 721T453 694V614Q421 628 378 640T276 652Q215 652 181 625T147 547Q147 523 152 505T168 472T198 447T245 427L319 402Q358 389 389 373T443 333T477 277T489 199Q489 151 475 112T432 45T357 2T249 -14Z" />
<glyph unicode="T" glyph-name="T" horiz-adv-x="571" d="M239 641H29V721H542V641H332V0H239V641Z" />
<glyph unicode="U" glyph-name="U" horiz-adv-x="692" d="M349 -14Q222 -14 154 49T85 246V721H178V252Q178 195 189 159T223 100T278 70T353 61Q395 61 426 69T479 99T510 158T521 253V721H607V249Q607 109 543 48T349 -14Z" />
<glyph unicode="V" glyph-name="V" horiz-adv-x="634" d="M20 721H117L265 287Q275 257 285 222T303 156Q312 120 320 85H323Q331 120 341 156Q349 187 359 222T380 287L525 721H613L364 0H270L20 721Z" />
<glyph unicode="W" glyph-name="W" horiz-adv-x="894" d="M22 721H117L199 370Q208 330 217 284T234 195Q243 147 251 99H254Q263 145 273 193Q281 233 291 279T313 364L413 721H494L593 364Q604 326 614 280T632 193Q642 145 650 99H653Q660 147 669 195Q677
237 685 283T704 370L786 721H872L695 0H605L512 341Q501 380 490 426T471 515Q460 563 452 612H449Q440 563 429 515Q420 473 409 427T387 341L291 0H201L22 721Z" />
<glyph unicode="X" glyph-name="X" horiz-adv-x="635" d="M265 367L45 721H149L238 578Q252 555 267 527T295 475Q310 446 325 418H329Q342 446 356 475Q368 499 382 527T410 578L494 721H590L378 366L603 0H498L390 178Q377 199 365 223T341 268Q329 293 317
317H313Q301 293 289 268Q278 247 265 223T239 178L129 0H33L265 367Z" />
<glyph unicode="Y" glyph-name="Y" horiz-adv-x="588" d="M248 279L16 721H116L227 503Q239 479 251 451T275 397Q287 368 298 339H301Q312 368 324 397Q335 422 347 450T372 503L481 721H572L341 279V0H248V279Z" />
<glyph unicode="Z" glyph-name="Z" horiz-adv-x="569" d="M38 72L322 494Q337 517 357 542T396 589Q417 614 440 638V641H65V721H533V650L264 254Q246 228 223 198T178 142Q153 112 129 83V80H519V0H38V72Z" />
<glyph unicode="[" glyph-name="bracketleft" horiz-adv-x="385" d="M90 769H342V696H180V-52H342V-125H90V769Z" />
<glyph unicode="\" glyph-name="backslash" horiz-adv-x="395" d="M33 769H114L380 -125H299L33 769Z" />
<glyph unicode="]" glyph-name="bracketright" horiz-adv-x="385" d="M295 -125H43V-52H205V696H43V769H295V-125Z" />
<glyph unicode="^" glyph-name="asciicircum" horiz-adv-x="524" d="M225 721H301L469 430H389L263 632L135 430H55L225 721Z" />
<glyph unicode="_" glyph-name="underscore" horiz-adv-x="344" d="M-2 -63H346V-125H-2V-63Z" />
<glyph unicode="`" glyph-name="grave" horiz-adv-x="500" d="M89 786H192L295 617H209L89 786Z" />
<glyph unicode="a" glyph-name="a" horiz-adv-x="501" d="M204 -10Q168 -10 139 -1T87 27T53 74T41 141Q41 211 82 249T200 296L339 312V364Q339 394 332 414T310 445T270 460T210 465Q172 465 141 460T85 449V515Q120 529 159 536T246 544Q334 544 381 506T429
387V0H357L347 45H341Q322 22 289 6T204 -10ZM227 60Q261 60 291 70T339 97V244L223 232Q179 227 157 208T134 144Q134 101 159 81T227 60Z" />
<glyph unicode="b" glyph-name="b" horiz-adv-x="578" d="M268 -14Q245 -14 219 -12T166 -6T116 3T75 16V769H165V501H170Q200 520 237 532T329 544Q366 544 402 533T468 495T515 422T533 304V248Q533 125 466 56T268 -14ZM275 63Q308 63 337 71T390 98T426 151T440
235V298Q440 347 431 379T402 431T354 458T286 466Q249 466 216 455T165 436V81Q182 75 208 69T275 63Z" />
<glyph unicode="c" glyph-name="c" horiz-adv-x="470" d="M287 -10Q231 -10 186 5T108 52T59 130T42 240V287Q42 354 61 402T115 482T194 529T292 544Q344 544 376 535T435 509V433Q417 440 402 446T369 456T332 463T286 466Q216 466 176 426T135 301V243Q135
148 176 108T297 68Q351 68 386 81T442 105V32Q416 15 379 3T287 -10Z" />
<glyph unicode="d" glyph-name="d" horiz-adv-x="578" d="M262 -10Q224 -10 186 2T116 42T65 118T45 235V279Q45 349 62 399T111 481T185 528T279 544Q327 544 359 534T413 511V769H503V0H427L418 43H413Q390 19 353 5T262 -10ZM291 64Q335 64 365 78T413 107V434Q396
448 363 457T290 466Q254 466 226 457T179 428T149 374T138 292V239Q138 188 149 155T180 101T229 73T291 64Z" />
<glyph unicode="e" glyph-name="e" horiz-adv-x="529" d="M293 -10Q231 -10 184 8T106 59T58 140T42 245V290Q42 356 61 404T112 483T186 529T273 544Q382 544 434 483T487 302V240H135Q136 145 181 107T307 69Q360 69 397 79T471 109V42Q448 24 404 7T293 -10ZM269
470Q246 470 223 463T181 439T149 391T135 314H391Q391 398 360 434T269 470Z" />
<glyph unicode="f" glyph-name="f" horiz-adv-x="372" d="M119 458H27V534H119V609Q119 653 131 685T166 737T218 768T284 778Q316 778 341 772T380 757V692Q369 695 349 698T301 702Q256 702 233 679T210 602V534H344V458H210V0H119V458Z" />
<glyph unicode="g" glyph-name="g" horiz-adv-x="578" d="M261 -213Q234 -213 206 -210T154 -202T109 -189T75 -172V-104Q85 -108 102 -113T142 -124T191 -132T244 -136Q324 -136 368 -106T413 3V64H408Q385 41 350 28T262 14Q224 14 186 25T116 63T65 134T45
247V291Q45 358 62 406T111 485T185 530T279 544Q327 544 359 531T413 503H418L427 534H503V-7Q503 -63 487 -102T440 -166T364 -202T261 -213ZM291 89Q335 89 365 103T413 132V427Q396 441 363 453T290 465Q254 465 226 458T179 432T149 382T138 304V251Q138 202
149 171T180 121T229 96T291 89Z" />
<glyph unicode="h" glyph-name="h" horiz-adv-x="567" d="M75 769H165V490H170Q202 513 248 528T343 544Q421 544 458 510T496 397V0H406V378Q406 401 402 417T386 444T354 460T303 465Q268 465 231 454T165 430V0H75V769Z" />
<glyph unicode="i" glyph-name="i" horiz-adv-x="246" d="M78 534H168V0H78V534ZM75 734H171V640H75V734Z" />
<glyph unicode="j" glyph-name="j" horiz-adv-x="246" d="M22 -207Q-6 -207 -24 -203T-58 -189V-126Q-44 -128 -30 -130T-1 -132Q36 -132 57 -113T78 -52V534H168V-57Q168 -90 160 -117T134 -165T89 -196T22 -207ZM75 734H171V640H75V734Z" />
<glyph unicode="k" glyph-name="k" horiz-adv-x="510" d="M75 769H165V0H75V769ZM189 276L376 534H473L288 282L490 0H386L189 276Z" />
<glyph unicode="l" glyph-name="l" horiz-adv-x="300" d="M199 -6Q144 -6 111 22T78 121V769H169V132Q169 94 182 82T223 69Q250 69 284 77V13Q268 6 250 0T199 -6Z" />
<glyph unicode="m" glyph-name="m" horiz-adv-x="849" d="M75 534H161V488H166Q199 511 240 527T326 544Q415 544 452 485H457Q499 513 543 528T632 544Q701 544 739 510T778 397V0H688V378Q688 424 669 444T596 465Q567 465 535 455T469 428Q470 420 470 413T471
397V0H381V378Q381 424 362 444T290 465Q258 465 226 455T165 430V0H75V534Z" />
<glyph unicode="n" glyph-name="n" horiz-adv-x="567" d="M75 534H161V488H166Q199 511 247 527T343 544Q421 544 458 510T496 397V0H406V378Q406 401 402 417T386 444T354 460T303 465Q268 465 231 454T165 430V0H75V534Z" />
<glyph unicode="o" glyph-name="o" horiz-adv-x="564" d="M282 -10Q167 -10 105 56T42 241V289Q42 348 59 395T108 475T184 526T283 544Q396 544 459 477T522 292V245Q522 186 505 139T456 58T380 8T282 -10ZM284 64Q353 64 390 108T428 235V294Q428 344 417 377T385
431T339 460T281 469Q211 469 173 424T135 298V239Q135 188 146 155T178 101T226 73T284 64Z" />
<glyph unicode="p" glyph-name="p" horiz-adv-x="578" d="M75 534H161V491H166Q190 514 229 529T318 544Q360 544 399 532T468 490T515 414T533 297V252Q533 183 517 133T469 52T394 5T296 -10Q251 -10 219 0T165 24V-203H75V534ZM288 64Q324 64 352 73T399 103T429
157T440 240V293Q440 343 430 376T402 430T356 458T293 466Q249 466 216 454T165 430V101Q182 87 215 76T288 64Z" />
<glyph unicode="q" glyph-name="q" horiz-adv-x="575" d="M413 32H408Q388 18 353 4T262 -10Q224 -10 186 2T116 42T65 118T45 235V279Q45 355 66 406T122 488T204 531T304 544Q373 544 421 533T503 505V-203H413V32ZM291 67Q335 67 365 80T413 107V453Q393 459
363 464T298 470Q262 470 233 461T182 430T150 375T138 292V239Q138 188 149 155T180 103T228 75T291 67Z" />
<glyph unicode="r" glyph-name="r" horiz-adv-x="368" d="M75 534H161V471H166Q177 484 194 496T231 519T272 534T315 540Q338 540 348 536V454Q338 456 327 457T308 458Q271 458 232 445T165 413V0H75V534Z" />
<glyph unicode="s" glyph-name="s" horiz-adv-x="441" d="M216 -9Q165 -9 122 0T46 28V101Q63 94 79 88T113 78T154 71T204 68Q263 68 289 87T316 141Q316 174 297 193T229 225L179 238Q150 245 126 256T85 285T58 327T48 387Q48 457 92 500T232 544Q286 544 319
534T376 513V439Q356 448 319 457T237 467Q134 467 134 396Q134 364 152 348T210 320L260 307Q299 297 326 285T371 254T397 211T405 150Q405 71 354 31T216 -9Z" />
<glyph unicode="t" glyph-name="t" horiz-adv-x="392" d="M265 -6Q233 -6 206 1T160 24T129 64T117 125V458H27V534H117V660H208V534H355V458H208V138Q208 100 225 85T288 69Q305 69 327 72T365 80V19Q348 10 324 2T265 -6Z" />
<glyph unicode="u" glyph-name="u" horiz-adv-x="560" d="M232 -10Q154 -10 113 29T72 147V534H162V161Q162 112 182 91T259 69Q300 69 333 80T395 107V534H486V0H409L400 46H394Q361 23 321 7T232 -10Z" />
<glyph unicode="v" glyph-name="v" horiz-adv-x="522" d="M22 534H120L202 293Q213 261 223 223T242 150Q252 110 262 70H266Q275 110 286 150Q295 184 305 222T327 293L412 534H500L306 0H216L22 534Z" />
<glyph unicode="w" glyph-name="w" horiz-adv-x="772" d="M26 534H123L179 307Q187 274 195 233T211 154Q219 111 226 68H230Q238 112 247 155Q255 192 264 233T283 308L349 534H432L498 308Q508 275 517 234T535 155Q544 112 552 68H556Q563 111 571 154Q578
191 586 232T603 307L660 534H746L597 0H506L433 247Q425 273 417 309T403 377Q396 415 389 454H385Q378 415 371 377Q365 345 357 309T341 247L267 0H175L26 534Z" />
<glyph unicode="x" glyph-name="x" horiz-adv-x="507" d="M202 271L33 534H136L207 420Q216 406 224 388T241 354Q250 336 258 316H262Q269 336 277 354Q284 370 292 388T309 420L374 534H468L307 271L482 0H378L309 112Q300 126 290 144T272 179Q262 197 253
216H249Q240 197 229 179Q220 163 210 145T190 112L121 0H25L202 271Z" />
<glyph unicode="y" glyph-name="y" horiz-adv-x="511" d="M108 -207Q90 -207 71 -203T41 -191V-127Q51 -129 64 -130T92 -131Q128 -131 154 -113T197 -51L221 14L15 534H113L199 303Q211 270 222 232T243 162Q254 124 263 87H266Q275 125 286 163Q295 195 306
233T328 303L406 534H496L280 -63Q266 -102 250 -129T214 -173T168 -199T108 -207Z" />
<glyph unicode="z" glyph-name="z" horiz-adv-x="478" d="M43 68L235 335Q249 354 266 375T300 414Q318 435 339 456V459H58V534H433V468L245 207Q231 187 213 165T177 123Q158 100 138 78V75H432V0H43V68Z" />
<glyph unicode="{" glyph-name="braceleft" horiz-adv-x="435" d="M392 -128Q317 -127 272 -112T201 -73T167 -16T158 52V181Q158 208 152 226T132 256T94 274T32 282V361Q69 363 93 369T132 387T152 417T158 462V591Q158 627 166 659T200 715T271 754T392 771V698Q352
696 325 690T280 672T256 639T248 587V458Q248 435 242 414T222 375T184 344T127 324V319Q161 313 184 300T221 270T242 231T248 185V56Q248 25 255 5T280 -28T324 -47T392 -55V-128V-128Z" />
<glyph unicode="|" glyph-name="bar" horiz-adv-x="323" d="M120 769H203V-125H120V769Z" />
<glyph unicode="}" glyph-name="braceright" horiz-adv-x="435" d="M43 -128V-55Q83 -53 110 -47T155 -29T179 4T187 56V185Q187 209 193 230T213 269T251 300T308 319V324Q274 331 251 344T214 374T193 413T187 458V587Q187 618 180 638T155 671T111 690T43 698V771Q118
769 163 754T234 715T268 659T277 591V462Q277 435 283 417T303 387T341 369T403 361V282Q366 280 342 274T303 257T283 227T277 181V52Q277 16 269 -16T235 -72T164 -112T43 -128Z" />
<glyph unicode="~" glyph-name="asciitilde" horiz-adv-x="462" d="M47 250Q55 316 86 346T160 376Q180 376 200 369T238 353T273 337T303 329Q320 329 332 342T349 378H415Q407 312 376 282T302 252Q282 252 262 259T224 275T189 291T159 299Q142 299 130 286T113
250H47V250Z" />
<glyph unicode="&#xa0;" glyph-name="uni00A0" horiz-adv-x="252" />
<glyph unicode="&#xa1;" glyph-name="exclamdown" horiz-adv-x="316" d="M211 -125H108L119 368H199L211 -125ZM216 478H101V596H216V478Z" />
<glyph unicode="&#xa2;" glyph-name="cent" horiz-adv-x="470" d="M276 -10L251 -154H184L210 -1Q131 17 87 76T42 240V287Q42 354 61 402T115 482T194 529T292 544H303L319 639H388L370 536Q390 531 405 524T435 509V433Q414 441 396 447T357 459L289 68H297Q351
68 386 81T442 105V32Q416 15 379 3T287 -10H276ZM135 243Q135 172 157 133T223 78L289 466H286Q216 466 176 426T135 301V243Z" />
<glyph unicode="&#xa3;" glyph-name="sterling" horiz-adv-x="554" d="M57 393H138V499Q138 562 157 606T209 679T282 720T366 733Q410 733 445 723T504 696V629Q474 640 448 646T381 652Q353 652 326 646T278 622T244 574T231 495V393H421V322H231V261Q231 226
226 200T212 153T187 116T152 84V80H510V0H48V70Q93 97 115 139T138 257V322H57V393Z" />
<glyph unicode="&#xa5;" glyph-name="yen" horiz-adv-x="608" d="M63 352H236L31 721H131L237 524Q251 498 263 470T286 417Q297 389 308 361H311Q322 389 333 417Q343 441 355 469T382 524L486 721H577L372 352H550V281H351V202H550V131H351V0H258V131H63V202H258V281H63V352Z"
/>
<glyph unicode="&#xa6;" glyph-name="brokenbar" horiz-adv-x="323" d="M120 268H203V-125H120V268ZM120 769H203V388H120V769Z" />
<glyph unicode="&#xa7;" glyph-name="section" horiz-adv-x="522" d="M245 -137Q190 -137 150 -127T75 -97V-22Q93 -30 109 -36T144 -47T185 -55T235 -58Q299 -58 329 -36T360 27Q360 46 356 59T342 82T315 101T270 118L181 146Q150 156 124 169T78 202T48 249T37
312Q37 366 62 396T136 442Q113 462 99 492T85 567Q85 604 98 634T136 687T198 721T286 733Q342 733 374 722T431 698V623Q408 634 372 644T288 654Q234 654 203 634T172 576Q172 557 175 544T186 520T207 503T243 488L341 457Q378 445 406 432T454 399T483 353T493
288Q493 232 467 202T393 157Q423 136 437 107T451 35Q451 -49 397 -93T245 -137ZM202 409Q164 401 145 377T125 320Q125 282 143 261T209 226L324 190Q362 201 382 225T403 281Q403 319 382 339T308 376L202 409Z" />
<glyph unicode="&#xa8;" glyph-name="dieresis" horiz-adv-x="500" d="M303 738H397V640H303V738ZM103 738H197V640H103V738Z" />
<glyph unicode="&#xa9;" glyph-name="copyright" horiz-adv-x="840" d="M419 -15Q341 -15 275 14T160 94T84 213T56 358Q56 435 83 502T159 620T274 699T419 728Q497 728 563 699T679 620T756 503T784 358Q784 281 756 213T679 95T564 15T419 -15ZM419 37Q485
37 540 61T636 127T699 229T722 358Q722 428 700 486T637 587T541 652T419 676Q353 676 298 653T202 587T140 487T118 358Q118 288 140 229T202 128T297 61T419 37ZM430 164Q392 164 361 174T308 206T273 261T260 340V378Q260 427 274 460T312 513T368 543T436
552Q468 552 491 545T529 530V468Q506 477 484 482T432 487Q391 487 366 465T340 385V340Q340 281 363 254T441 227Q474 227 495 235T533 252V191Q514 180 489 172T430 164Z" />
<glyph unicode="&#xaa;" glyph-name="ordfeminine" horiz-adv-x="460" d="M208 291Q237 291 262 300T302 321V463L210 456Q165 452 144 430T122 371Q122 334 144 313T208 291ZM183 231Q119 231 78 265T37 368Q37 431 75 466T181 509L304 523V570Q304 597 298 613T278
639T242 652T189 655Q154 655 126 651T76 641V704Q109 717 144 723T224 730Q304 730 347 697T391 591V240H321L312 284H306Q289 264 260 248T183 231Z" />
<glyph unicode="&#xab;" glyph-name="guillemotleft" horiz-adv-x="512" d="M51 245V280L176 467H259L136 263L259 58H176L51 245ZM251 245V280L375 467H458L336 263L458 58H375L251 245Z" />
<glyph unicode="&#xae;" glyph-name="registered" horiz-adv-x="618" d="M215 595H317Q362 595 387 575T413 517Q413 485 399 469T367 447V443L426 333H363L312 431H274V333H215V595ZM308 229Q356 229 396 247T464 297T508 370T524 460Q524 507 509 549T465 622T396
672T308 690Q260 690 221 672T154 623T111 549T95 460Q95 412 110 370T153 297T220 248T308 229ZM274 474H312Q335 474 344 484T353 512Q353 529 344 539T312 550H274V474ZM308 184Q251 184 202 205T117 264T60 352T39 460Q39 517 60 567T117 655T202 713T308 735Q365
735 414 714T500 655T558 568T579 460Q579 403 558 353T501 265T415 206T308 184Z" />
<glyph unicode="&#xaf;" glyph-name="macron" horiz-adv-x="500" d="M113 725H387V649H113V725Z" />
<glyph unicode="&#xb0;" glyph-name="degree" horiz-adv-x="459" d="M230 396Q193 396 162 409T108 446T72 499T59 564Q59 598 72 628T108 681T162 717T230 730Q267 730 298 717T351 682T387 629T400 564Q400 530 387 500T352 446T298 410T230 396ZM230 455Q276
455 302 487T329 564Q329 609 303 640T230 671Q183 671 156 640T129 564Q129 519 156 487T230 455Z" />
<glyph unicode="&#xb1;" glyph-name="plusminus" horiz-adv-x="583" d="M250 317H57V397H250V570H333V397H526V317H333V144H250V317ZM57 0V80H526V0H57Z" />
<glyph unicode="&#xb4;" glyph-name="acute" horiz-adv-x="500" d="M308 786H411L291 617H205L308 786Z" />
<glyph unicode="&#xb6;" glyph-name="paragraph" horiz-adv-x="621" d="M293 350H243Q203 350 167 362T103 397T59 455T42 535Q42 572 54 606T94 665T166 706T277 721H531V-125H465V661H360V-125H293V350Z" />
<glyph unicode="&#xb7;" glyph-name="periodcentered" horiz-adv-x="291" d="M88 397H203V279H88V397Z" />
<glyph unicode="&#xb8;" glyph-name="cedilla" horiz-adv-x="500" d="M195 -193Q232 -188 255 -183T292 -171T311 -157T316 -140Q316 -131 313 -125T299 -115T272 -109T227 -107V0H293V-55Q344 -60 368 -79T393 -137Q393 -158 386 -176T357 -209T297 -233T195 -247V-193Z" />
<glyph unicode="&#xba;" glyph-name="ordmasculine" horiz-adv-x="512" d="M255 231Q152 231 95 291T38 461V497Q38 552 54 595T98 669T167 714T256 730Q359 730 416 670T474 500V464Q474 409 458 366T414 292T345 247T255 231ZM257 302Q317 302 350 340T384 455V502Q384
548 374 578T346 627T305 652T254 659Q194 659 161 620T127 505V459Q127 413 137 383T165 334T206 309T257 302Z" />
<glyph unicode="&#xbb;" glyph-name="guillemotright" horiz-adv-x="512" d="M376 262L253 467H336L461 280V245L336 58H253L376 262ZM176 262L54 467H137L261 280V245L137 58H54L176 262Z" />
<glyph unicode="&#xbc;" glyph-name="onequarter" horiz-adv-x="875" d="M400 632L287 618V667L440 723H484V282H400V632ZM642 742H720L228 -42H150L642 742ZM682 -72V30H479V91L691 369H762V90H840V30H762V-72H682ZM539 86Q556 87 571 88Q584 89 597 89T621 90H685V190Q685
201 685 216T686 245Q687 262 688 280H685Q676 265 667 251Q659 239 651 227T637 206L600 157Q593 149 583 138T563 115Q552 103 539 89V86Z" />
<glyph unicode="&#xbd;" glyph-name="onehalf" horiz-adv-x="871" d="M400 632L287 618V667L440 723H484V282H400V632ZM634 742H712L220 -42H142L634 742ZM549 -14L648 78Q696 123 722 158T749 231V241Q749 277 727 293T662 310Q631 310 603 305T555 291V349Q579
361 608 369T679 377Q752 377 791 342T830 249V238Q830 185 800 143T711 50L647 -4V-8H837V-72H549V-14Z" />
<glyph unicode="&#xbe;" glyph-name="threequarters" horiz-adv-x="893" d="M151 274Q108 274 79 283T28 303V360Q51 352 77 346T129 339Q180 339 209 357T238 412Q238 481 145 481H97V540H138Q180 540 203 556T226 604Q226 638 203 652T138 666Q109 666 86 663T41
652V709Q65 720 96 725T162 731Q226 731 265 703T304 621Q304 581 281 554T214 516V513Q264 506 291 480T319 405Q319 342 274 308T151 274ZM668 742H746L254 -42H176L668 742ZM700 -72V30H497V91L709 369H780V90H858V30H780V-72H700ZM557 86Q574 87 589 88Q602
89 615 89T639 90H703V190Q703 201 703 216T704 245Q705 262 706 280H703Q694 265 685 251Q677 239 669 227T655 206L618 157Q611 149 601 138T581 115Q570 103 557 89V86Z" />
<glyph unicode="&#xbf;" glyph-name="questiondown" horiz-adv-x="447" d="M314 321Q314 293 307 272T287 233T253 197T207 157Q190 143 178 131T159 106T148 76T144 36Q144 -19 177 -38T270 -58Q293 -58 311 -56T346 -51T377 -43T410 -32V-106Q374 -122 336 -129T248
-137Q207 -137 170 -128T106 -99T62 -47T45 34Q45 67 51 90T69 133T102 172T152 215Q170 230 184 242T208 266T223 293T229 327V368H314V321ZM327 478H212V596H327V478Z" />
<glyph unicode="&#xc0;" glyph-name="Agrave" horiz-adv-x="640" d="M275 721H366L616 0H519L450 203H178L109 0H21L275 721ZM205 283H422L371 434Q360 463 351 498T333 565Q324 601 316 636H313Q305 601 295 565Q287 534 277 499T256 434L205 283ZM183 916H290L370
777H282L183 916Z" />
<glyph unicode="&#xc1;" glyph-name="Aacute" horiz-adv-x="640" d="M275 721H366L616 0H519L450 203H178L109 0H21L275 721ZM205 283H422L371 434Q360 463 351 498T333 565Q324 601 316 636H313Q305 601 295 565Q287 534 277 499T256 434L205 283ZM359 777H271L349
916H456L359 777Z" />
<glyph unicode="&#xc2;" glyph-name="Acircumflex" horiz-adv-x="640" d="M275 721H366L616 0H519L450 203H178L109 0H21L275 721ZM205 283H422L371 434Q360 463 351 498T333 565Q324 601 316 636H313Q305 601 295 565Q287 534 277 499T256 434L205 283ZM282 917H360L480
777H405L320 845L237 777H162L282 917Z" />
<glyph unicode="&#xc3;" glyph-name="Atilde" horiz-adv-x="640" d="M275 721H366L616 0H519L450 203H178L109 0H21L275 721ZM205 283H422L371 434Q360 463 351 498T333 565Q324 601 316 636H313Q305 601 295 565Q287 534 277 499T256 434L205 283ZM147 781Q154
843 185 873T256 904Q276 904 294 898T328 883T358 869T385 862Q403 862 414 874T429 906H493Q487 844 456 814T384 783Q364 783 347 789T313 803T283 817T255 824Q237 824 226 813T211 781H147V781Z" />
<glyph unicode="&#xc4;" glyph-name="Adieresis" horiz-adv-x="640" d="M275 721H366L616 0H519L450 203H178L109 0H21L275 721ZM205 283H422L371 434Q360 463 351 498T333 565Q324 601 316 636H313Q305 601 295 565Q287 534 277 499T256 434L205 283ZM379 883H473V785H379V883ZM167
883H261V785H167V883Z" />
<glyph unicode="&#xc5;" glyph-name="Aring" horiz-adv-x="640" d="M275 721H366L616 0H519L450 203H178L109 0H21L275 721ZM205 283H422L371 434Q360 463 351 498T333 565Q324 601 316 636H313Q305 601 295 565Q287 534 277 499T256 434L205 283ZM321 1025Q297
1025 276 1033T240 1056T216 1091T207 1134Q207 1156 216 1175T240 1210T276 1233T321 1242Q345 1242 366 1234T402 1210T426 1176T435 1134Q435 1111 426 1091T402 1057T366 1034T321 1025ZM321 1071Q348 1071 364 1088T381 1134Q381 1162 365 1179T321 1196Q294
1196 278 1179T261 1134Q261 1105 277 1088T321 1071Z" />
<glyph unicode="&#xc6;" glyph-name="AE" horiz-adv-x="935" d="M394 721H869V641H539V412H793V332H539V80H872V0H446V208H211L103 0H10L394 721ZM253 288H446V510Q446 533 446 561T449 614Q450 643 452 672H448Q435 645 423 619Q412 596 400 571T376 524L253 288Z" />
<glyph unicode="&#xc7;" glyph-name="Ccedilla" horiz-adv-x="594" d="M361 -12Q289 -12 232 8T134 71T71 177T49 330V395Q49 489 75 553T145 658T248 715T375 733Q432 733 474 723T550 694V615Q505 632 464 642T369 652Q321 652 281 639T212 598T166 523T149
411V332Q149 206 201 138T373 69Q438 69 481 83T558 114V34Q520 12 471 0T361 -12ZM236 -193Q273 -188 296 -183T333 -171T352 -157T357 -140Q357 -131 354 -125T340 -115T313 -109T268 -107V0H334V-55Q385 -60 409 -79T434 -137Q434 -158 427 -176T398 -209T338
-233T236 -247V-193Z" />
<glyph unicode="&#xc8;" glyph-name="Egrave" horiz-adv-x="581" d="M90 721H513V641H183V412H437V332H183V80H516V0H90V721ZM171 916H278L358 777H270L171 916Z" />
<glyph unicode="&#xc9;" glyph-name="Eacute" horiz-adv-x="581" d="M90 721H513V641H183V412H437V332H183V80H516V0H90V721ZM347 777H259L337 916H444L347 777Z" />
<glyph unicode="&#xca;" glyph-name="Ecircumflex" horiz-adv-x="581" d="M90 721H513V641H183V412H437V332H183V80H516V0H90V721ZM267 917H345L465 777H390L305 845L222 777H147L267 917Z" />
<glyph unicode="&#xcb;" glyph-name="Edieresis" horiz-adv-x="581" d="M90 721H513V641H183V412H437V332H183V80H516V0H90V721ZM364 883H458V785H364V883ZM152 883H246V785H152V883Z" />
<glyph unicode="&#xcc;" glyph-name="Igrave" horiz-adv-x="285" d="M96 721H189V0H96V721ZM260 916H367L447 777H359L260 916Z" />
<glyph unicode="&#xcd;" glyph-name="Iacute" horiz-adv-x="285" d="M96 721H189V0H96V721ZM440 777H352L430 916H537L440 777Z" />
<glyph unicode="&#xce;" glyph-name="Icircumflex" horiz-adv-x="285" d="M96 721H189V0H96V721ZM360 917H438L558 777H483L398 845L315 777H240L360 917Z" />
<glyph unicode="&#xcf;" glyph-name="Idieresis" horiz-adv-x="285" d="M190 883H284V785H190V883ZM0 883H94V785H0V883ZM96 721H189V0H96V721Z" />
<glyph unicode="&#xd0;" glyph-name="Eth" horiz-adv-x="687" d="M90 321H17V401H90V721H314Q475 721 556 643T638 401V340Q638 259 620 196T563 90T463 23T316 0H90V321ZM318 81Q378 81 419 94T487 137T526 213T538 325V401Q538 470 524 516T480 589T408 628T306
640H183V401H384V321H183V81H318Z" />
<glyph unicode="&#xd1;" glyph-name="Ntilde" horiz-adv-x="704" d="M90 721H200L420 343Q438 311 458 273T496 200Q516 160 536 120H539Q536 164 534 210Q532 248 531 293T529 376V721H614V0H517L282 408Q263 440 244 478T207 551Q188 591 168 631H165Q167 587
170 543Q172 505 173 462T175 382V0H90V721ZM191 781Q198 843 229 873T300 904Q320 904 338 898T372 883T402 869T429 862Q447 862 458 874T473 906H537Q531 844 500 814T428 783Q408 783 391 789T357 803T327 817T299 824Q281 824 270 813T255 781H191V781Z" />
<glyph unicode="&#xd2;" glyph-name="Ograve" horiz-adv-x="708" d="M353 -12Q282 -12 226 10T131 75T70 182T49 330V391Q49 471 70 534T131 642T228 709T357 733Q427 733 483 711T578 646T638 538T659 390V329Q659 249 638 186T578 79T481 12T353 -12ZM356 66Q410
66 448 85T511 137T547 215T559 314V389Q559 448 549 497T515 581T451 635T352 655Q298 655 260 637T197 585T161 507T149 408V333Q149 274 159 225T193 140T257 86T356 66ZM215 916H322L402 777H314L215 916Z" />
<glyph unicode="&#xd3;" glyph-name="Oacute" horiz-adv-x="708" d="M353 -12Q282 -12 226 10T131 75T70 182T49 330V391Q49 471 70 534T131 642T228 709T357 733Q427 733 483 711T578 646T638 538T659 390V329Q659 249 638 186T578 79T481 12T353 -12ZM356 66Q410
66 448 85T511 137T547 215T559 314V389Q559 448 549 497T515 581T451 635T352 655Q298 655 260 637T197 585T161 507T149 408V333Q149 274 159 225T193 140T257 86T356 66ZM394 777H306L384 916H491L394 777Z" />
<glyph unicode="&#xd4;" glyph-name="Ocircumflex" horiz-adv-x="708" d="M353 -12Q282 -12 226 10T131 75T70 182T49 330V391Q49 471 70 534T131 642T228 709T357 733Q427 733 483 711T578 646T638 538T659 390V329Q659 249 638 186T578 79T481 12T353 -12ZM356
66Q410 66 448 85T511 137T547 215T559 314V389Q559 448 549 497T515 581T451 635T352 655Q298 655 260 637T197 585T161 507T149 408V333Q149 274 159 225T193 140T257 86T356 66ZM315 917H393L513 777H438L353 845L270 777H195L315 917Z" />
<glyph unicode="&#xd5;" glyph-name="Otilde" horiz-adv-x="708" d="M353 -12Q282 -12 226 10T131 75T70 182T49 330V391Q49 471 70 534T131 642T228 709T357 733Q427 733 483 711T578 646T638 538T659 390V329Q659 249 638 186T578 79T481 12T353 -12ZM356 66Q410
66 448 85T511 137T547 215T559 314V389Q559 448 549 497T515 581T451 635T352 655Q298 655 260 637T197 585T161 507T149 408V333Q149 274 159 225T193 140T257 86T356 66ZM181 781Q188 843 219 873T290 904Q310 904 328 898T362 883T392 869T419 862Q437 862
448 874T463 906H527Q521 844 490 814T418 783Q398 783 381 789T347 803T317 817T289 824Q271 824 260 813T245 781H181V781Z" />
<glyph unicode="&#xd6;" glyph-name="Odieresis" horiz-adv-x="708" d="M353 -12Q282 -12 226 10T131 75T70 182T49 330V391Q49 471 70 534T131 642T228 709T357 733Q427 733 483 711T578 646T638 538T659 390V329Q659 249 638 186T578 79T481 12T353 -12ZM356
66Q410 66 448 85T511 137T547 215T559 314V389Q559 448 549 497T515 581T451 635T352 655Q298 655 260 637T197 585T161 507T149 408V333Q149 274 159 225T193 140T257 86T356 66ZM413 883H507V785H413V883ZM201 883H295V785H201V883Z" />
<glyph unicode="&#xd7;" glyph-name="multiply" horiz-adv-x="598" d="M85 164L245 326L85 488L139 543L299 381L459 543L513 488L353 326L513 164L459 109L299 271L139 109L85 164Z" />
<glyph unicode="&#xd8;" glyph-name="Oslash" horiz-adv-x="708" d="M353 -12Q253 -12 182 32L120 -62H30L125 81Q88 125 69 187T49 330V391Q49 471 70 534T131 642T228 709T357 733Q457 733 528 688L577 762H666L584 638Q620 595 639 533T659 390V329Q659 249
638 186T578 79T481 12T353 -12ZM149 333Q149 277 155 234T177 159L483 620Q459 637 427 646T352 655Q298 655 260 637T197 585T161 507T149 408V333ZM356 66Q410 66 448 85T511 137T547 215T559 314V389Q559 443 553 485T531 559L226 98Q273 66 356 66Z" />
<glyph unicode="&#xd9;" glyph-name="Ugrave" horiz-adv-x="692" d="M349 -14Q222 -14 154 49T85 246V721H178V252Q178 195 189 159T223 100T278 70T353 61Q395 61 426 69T479 99T510 158T521 253V721H607V249Q607 109 543 48T349 -14ZM222 916H329L409 777H321L222 916Z" />
<glyph unicode="&#xda;" glyph-name="Uacute" horiz-adv-x="692" d="M349 -14Q222 -14 154 49T85 246V721H178V252Q178 195 189 159T223 100T278 70T353 61Q395 61 426 69T479 99T510 158T521 253V721H607V249Q607 109 543 48T349 -14ZM385 777H297L375 916H482L385 777Z" />
<glyph unicode="&#xdb;" glyph-name="Ucircumflex" horiz-adv-x="692" d="M349 -14Q222 -14 154 49T85 246V721H178V252Q178 195 189 159T223 100T278 70T353 61Q395 61 426 69T479 99T510 158T521 253V721H607V249Q607 109 543 48T349 -14ZM310 917H388L508 777H433L348
845L265 777H190L310 917Z" />
<glyph unicode="&#xdc;" glyph-name="Udieresis" horiz-adv-x="692" d="M349 -14Q222 -14 154 49T85 246V721H178V252Q178 195 189 159T223 100T278 70T353 61Q395 61 426 69T479 99T510 158T521 253V721H607V249Q607 109 543 48T349 -14ZM408 883H502V785H408V883ZM196
883H290V785H196V883Z" />
<glyph unicode="&#xdd;" glyph-name="Yacute" horiz-adv-x="588" d="M248 279L16 721H116L227 503Q239 479 251 451T275 397Q287 368 298 339H301Q312 368 324 397Q335 422 347 450T372 503L481 721H572L341 279V0H248V279ZM340 777H252L330 916H437L340 777Z" />
<glyph unicode="&#xde;" glyph-name="Thorn" horiz-adv-x="588" d="M90 721H183V585H324Q382 585 425 570T497 528T539 463T553 380Q553 332 538 293T494 226T424 183T333 168H183V0H90V721ZM312 247Q392 247 423 280T454 373Q454 440 424 472T314 505H183V247H312Z" />
<glyph unicode="&#xdf;" glyph-name="germandbls" horiz-adv-x="556" d="M316 -8Q287 -8 271 -5T243 3V75Q257 70 272 69T306 68Q355 68 387 100T420 204Q420 283 379 327T256 387V466Q323 481 355 514T387 606Q387 651 359 677T281 703Q257 703 236 696T198 673T171
630T161 567V0H71V567Q71 624 88 664T135 729T201 766T280 778Q323 778 359 765T421 728T461 673T476 605Q476 568 465 540T435 492T387 457T326 433V428Q424 408 469 350T514 205Q514 160 503 122T468 54T407 9T316 -8Z" />
<glyph unicode="&#xe0;" glyph-name="agrave" horiz-adv-x="501" d="M204 -10Q168 -10 139 -1T87 27T53 74T41 141Q41 211 82 249T200 296L339 312V364Q339 394 332 414T310 445T270 460T210 465Q172 465 141 460T85 449V515Q120 529 159 536T246 544Q334 544
381 506T429 387V0H357L347 45H341Q322 22 289 6T204 -10ZM227 60Q261 60 291 70T339 97V244L223 232Q179 227 157 208T134 144Q134 101 159 81T227 60ZM95 786H198L301 617H215L95 786Z" />
<glyph unicode="&#xe1;" glyph-name="aacute" horiz-adv-x="501" d="M204 -10Q168 -10 139 -1T87 27T53 74T41 141Q41 211 82 249T200 296L339 312V364Q339 394 332 414T310 445T270 460T210 465Q172 465 141 460T85 449V515Q120 529 159 536T246 544Q334 544
381 506T429 387V0H357L347 45H341Q322 22 289 6T204 -10ZM227 60Q261 60 291 70T339 97V244L223 232Q179 227 157 208T134 144Q134 101 159 81T227 60ZM550 786H653L533 617H447L550 786Z" />
<glyph unicode="&#xe2;" glyph-name="acircumflex" horiz-adv-x="501" d="M204 -10Q168 -10 139 -1T87 27T53 74T41 141Q41 211 82 249T200 296L339 312V364Q339 394 332 414T310 445T270 460T210 465Q172 465 141 460T85 449V515Q120 529 159 536T246 544Q334
544 381 506T429 387V0H357L347 45H341Q322 22 289 6T204 -10ZM227 60Q261 60 291 70T339 97V244L223 232Q179 227 157 208T134 144Q134 101 159 81T227 60ZM466 797H544L671 617H596L504 725L414 617H339L466 797Z" />
<glyph unicode="&#xe3;" glyph-name="atilde" horiz-adv-x="501" d="M204 -10Q168 -10 139 -1T87 27T53 74T41 141Q41 211 82 249T200 296L339 312V364Q339 394 332 414T310 445T270 460T210 465Q172 465 141 460T85 449V515Q120 529 159 536T246 544Q334 544
381 506T429 387V0H357L347 45H341Q322 22 289 6T204 -10ZM227 60Q261 60 291 70T339 97V244L223 232Q179 227 157 208T134 144Q134 101 159 81T227 60ZM329 630Q336 690 367 719T438 748Q458 748 476 742T510 727T540 713T567 706Q585 706 597 718T613 750H675Q669
690 638 661T566 632Q546 632 529 638T495 652T465 666T437 673Q419 673 407 662T391 630H329V630Z" />
<glyph unicode="&#xe4;" glyph-name="adieresis" horiz-adv-x="501" d="M204 -10Q168 -10 139 -1T87 27T53 74T41 141Q41 211 82 249T200 296L339 312V364Q339 394 332 414T310 445T270 460T210 465Q172 465 141 460T85 449V515Q120 529 159 536T246 544Q334 544
381 506T429 387V0H357L347 45H341Q322 22 289 6T204 -10ZM227 60Q261 60 291 70T339 97V244L223 232Q179 227 157 208T134 144Q134 101 159 81T227 60ZM557 738H651V640H557V738ZM357 738H451V640H357V738Z" />
<glyph unicode="&#xe5;" glyph-name="aring" horiz-adv-x="501" d="M204 -10Q168 -10 139 -1T87 27T53 74T41 141Q41 211 82 249T200 296L339 312V364Q339 394 332 414T310 445T270 460T210 465Q172 465 141 460T85 449V515Q120 529 159 536T246 544Q334 544 381
506T429 387V0H357L347 45H341Q322 22 289 6T204 -10ZM227 60Q261 60 291 70T339 97V244L223 232Q179 227 157 208T134 144Q134 101 159 81T227 60ZM505 612Q481 612 460 620T424 643T400 678T391 721Q391 743 400 762T424 797T460 820T505 829Q529 829 550 821T586
797T610 763T619 721Q619 698 610 678T586 644T550 621T505 612ZM505 658Q532 658 548 675T565 721Q565 749 549 766T505 783Q478 783 462 766T445 721Q445 692 461 675T505 658Z" />
<glyph unicode="&#xe6;" glyph-name="ae" horiz-adv-x="826" d="M204 -10Q168 -10 139 -1T87 27T53 74T41 141Q41 211 83 248T200 295L339 313V364Q339 394 332 414T310 445T270 460T210 465Q172 465 141 460T85 449V515Q120 529 159 536T246 544Q375 544 403
452Q431 499 474 521T571 544Q680 544 732 483T784 302V244H432Q432 195 444 162T477 108T531 78T604 69Q657 69 694 79T768 109V42Q745 24 701 7T590 -10Q454 -10 391 73Q355 35 312 13T204 -10ZM362 122Q339 177 339 248L223 233Q178 228 156 208T134 144Q134
101 159 81T227 60Q266 60 299 76T362 122ZM567 470Q544 470 521 464T478 440T446 392T432 315H688Q688 399 658 434T567 470Z" />
<glyph unicode="&#xe7;" glyph-name="ccedilla" horiz-adv-x="470" d="M287 -10Q231 -10 186 5T108 52T59 130T42 240V287Q42 354 61 402T115 482T194 529T292 544Q344 544 376 535T435 509V433Q417 440 402 446T369 456T332 463T286 466Q216 466 176 426T135
301V243Q135 148 176 108T297 68Q351 68 386 81T442 105V32Q416 15 379 3T287 -10ZM436 -193Q473 -188 496 -183T533 -171T552 -157T557 -140Q557 -131 554 -125T540 -115T513 -109T468 -107V0H534V-55Q585 -60 609 -79T634 -137Q634 -158 627 -176T598 -209T538
-233T436 -247V-193Z" />
<glyph unicode="&#xe8;" glyph-name="egrave" horiz-adv-x="529" d="M293 -10Q231 -10 184 8T106 59T58 140T42 245V290Q42 356 61 404T112 483T186 529T273 544Q382 544 434 483T487 302V240H135Q136 145 181 107T307 69Q360 69 397 79T471 109V42Q448 24 404
7T293 -10ZM269 470Q246 470 223 463T181 439T149 391T135 314H391Q391 398 360 434T269 470ZM115 786H218L321 617H235L115 786Z" />
<glyph unicode="&#xe9;" glyph-name="eacute" horiz-adv-x="529" d="M319 786H422L302 617H216L319 786ZM293 -10Q231 -10 184 8T106 59T58 140T42 245V290Q42 356 61 404T112 483T186 529T273 544Q382 544 434 483T487 302V240H135Q136 145 181 107T307 69Q360
69 397 79T471 109V42Q448 24 404 7T293 -10ZM269 470Q246 470 223 463T181 439T149 391T135 314H391Q391 398 360 434T269 470Z" />
<glyph unicode="&#xea;" glyph-name="ecircumflex" horiz-adv-x="529" d="M293 -10Q231 -10 184 8T106 59T58 140T42 245V290Q42 356 61 404T112 483T186 529T273 544Q382 544 434 483T487 302V240H135Q136 145 181 107T307 69Q360 69 397 79T471 109V42Q448 24
404 7T293 -10ZM269 470Q246 470 223 463T181 439T149 391T135 314H391Q391 398 360 434T269 470ZM229 797H307L434 617H359L267 725L177 617H102L229 797Z" />
<glyph unicode="&#xeb;" glyph-name="edieresis" horiz-adv-x="529" d="M293 -10Q231 -10 184 8T106 59T58 140T42 245V290Q42 356 61 404T112 483T186 529T273 544Q382 544 434 483T487 302V240H135Q136 145 181 107T307 69Q360 69 397 79T471 109V42Q448 24
404 7T293 -10ZM269 470Q246 470 223 463T181 439T149 391T135 314H391Q391 398 360 434T269 470ZM321 738H415V640H321V738ZM121 738H215V640H121V738Z" />
<glyph unicode="&#xec;" glyph-name="igrave" horiz-adv-x="246" d="M78 534H168V0H78V534ZM223 786H326L429 617H343L223 786Z" />
<glyph unicode="&#xed;" glyph-name="iacute" horiz-adv-x="246" d="M78 534H168V0H78V534ZM178 786H281L161 617H75L178 786Z" />
<glyph unicode="&#xee;" glyph-name="icircumflex" horiz-adv-x="246" d="M78 534H168V0H78V534ZM341 797H419L546 617H471L379 725L289 617H214L341 797Z" />
<glyph unicode="&#xef;" glyph-name="idieresis" horiz-adv-x="246" d="M166 738H260V640H166V738ZM-14 738H80V640H-14V738ZM78 534H168V0H78V534Z" />
<glyph unicode="&#xf0;" glyph-name="eth" horiz-adv-x="573" d="M368 676Q439 605 481 513T523 301V253Q523 190 506 142T457 59T381 8T282 -10Q225 -10 181 8T105 59T58 138T42 243V283Q42 344 58 392T104 473T176 523T271 541Q306 541 331 534T379 512H383Q361
549 337 580T284 641L140 580L114 635L236 686Q213 706 188 726T135 769H249Q267 758 284 746T318 720L430 768L456 713L368 676ZM284 64Q353 64 391 109T429 244V294Q429 335 424 368T411 432Q397 441 384 447T355 458T320 465T276 468Q209 468 172 424T135 292V241Q135
191 146 158T178 103T226 73T284 64Z" />
<glyph unicode="&#xf1;" glyph-name="ntilde" horiz-adv-x="567" d="M75 534H161V488H166Q199 511 247 527T343 544Q421 544 458 510T496 397V0H406V378Q406 401 402 417T386 444T354 460T303 465Q268 465 231 454T165 430V0H75V534ZM110 630Q117 690 148 719T219
748Q239 748 257 742T291 727T321 713T348 706Q366 706 378 718T394 750H456Q450 690 419 661T347 632Q327 632 310 638T276 652T246 666T218 673Q200 673 188 662T172 630H110V630Z" />
<glyph unicode="&#xf2;" glyph-name="ograve" horiz-adv-x="564" d="M282 -10Q167 -10 105 56T42 241V289Q42 348 59 395T108 475T184 526T283 544Q396 544 459 477T522 292V245Q522 186 505 139T456 58T380 8T282 -10ZM284 64Q353 64 390 108T428 235V294Q428
344 417 377T385 431T339 460T281 469Q211 469 173 424T135 298V239Q135 188 146 155T178 101T226 73T284 64ZM125 786H228L331 617H245L125 786Z" />
<glyph unicode="&#xf3;" glyph-name="oacute" horiz-adv-x="564" d="M282 -10Q167 -10 105 56T42 241V289Q42 348 59 395T108 475T184 526T283 544Q396 544 459 477T522 292V245Q522 186 505 139T456 58T380 8T282 -10ZM284 64Q353 64 390 108T428 235V294Q428
344 417 377T385 431T339 460T281 469Q211 469 173 424T135 298V239Q135 188 146 155T178 101T226 73T284 64ZM333 786H436L316 617H230L333 786Z" />
<glyph unicode="&#xf4;" glyph-name="ocircumflex" horiz-adv-x="564" d="M282 -10Q167 -10 105 56T42 241V289Q42 348 59 395T108 475T184 526T283 544Q396 544 459 477T522 292V245Q522 186 505 139T456 58T380 8T282 -10ZM284 64Q353 64 390 108T428 235V294Q428
344 417 377T385 431T339 460T281 469Q211 469 173 424T135 298V239Q135 188 146 155T178 101T226 73T284 64ZM243 797H321L448 617H373L281 725L191 617H116L243 797Z" />
<glyph unicode="&#xf5;" glyph-name="otilde" horiz-adv-x="564" d="M282 -10Q167 -10 105 56T42 241V289Q42 348 59 395T108 475T184 526T283 544Q396 544 459 477T522 292V245Q522 186 505 139T456 58T380 8T282 -10ZM284 64Q353 64 390 108T428 235V294Q428
344 417 377T385 431T339 460T281 469Q211 469 173 424T135 298V239Q135 188 146 155T178 101T226 73T284 64ZM109 630Q116 690 147 719T218 748Q238 748 256 742T290 727T320 713T347 706Q365 706 377 718T393 750H455Q449 690 418 661T346 632Q326 632 309 638T275
652T245 666T217 673Q199 673 187 662T171 630H109V630Z" />
<glyph unicode="&#xf6;" glyph-name="odieresis" horiz-adv-x="564" d="M282 -10Q167 -10 105 56T42 241V289Q42 348 59 395T108 475T184 526T283 544Q396 544 459 477T522 292V245Q522 186 505 139T456 58T380 8T282 -10ZM284 64Q353 64 390 108T428 235V294Q428
344 417 377T385 431T339 460T281 469Q211 469 173 424T135 298V239Q135 188 146 155T178 101T226 73T284 64ZM335 738H429V640H335V738ZM135 738H229V640H135V738Z" />
<glyph unicode="&#xf7;" glyph-name="divide" horiz-adv-x="583" d="M57 367H526V287H57V367ZM234 189H349V71H234V189ZM234 583H349V465H234V583Z" />
<glyph unicode="&#xf8;" glyph-name="oslash" horiz-adv-x="564" d="M282 -10Q206 -10 150 21L101 -49H26L102 60Q42 126 42 241V289Q42 348 59 395T108 475T184 526T283 544Q361 544 415 511L459 574H534L463 472Q492 440 507 395T522 292V245Q522 186 505 139T456
58T380 8T282 -10ZM135 239Q135 204 139 179T152 133L371 448Q352 462 330 467T281 472Q211 472 173 426T135 298V239ZM284 60Q353 60 390 106T428 235V294Q428 358 411 397L192 83Q212 69 235 65T284 60Z" />
<glyph unicode="&#xf9;" glyph-name="ugrave" horiz-adv-x="560" d="M232 -10Q154 -10 113 29T72 147V534H162V161Q162 112 182 91T259 69Q300 69 333 80T395 107V534H486V0H409L400 46H394Q361 23 321 7T232 -10ZM127 786H230L333 617H247L127 786Z" />
<glyph unicode="&#xfa;" glyph-name="uacute" horiz-adv-x="560" d="M232 -10Q154 -10 113 29T72 147V534H162V161Q162 112 182 91T259 69Q300 69 333 80T395 107V534H486V0H409L400 46H394Q361 23 321 7T232 -10ZM334 786H437L317 617H231L334 786Z" />
<glyph unicode="&#xfb;" glyph-name="ucircumflex" horiz-adv-x="560" d="M232 -10Q154 -10 113 29T72 147V534H162V161Q162 112 182 91T259 69Q300 69 333 80T395 107V534H486V0H409L400 46H394Q361 23 321 7T232 -10ZM243 797H321L448 617H373L281 725L191 617H116L243
797Z" />
<glyph unicode="&#xfc;" glyph-name="udieresis" horiz-adv-x="560" d="M232 -10Q154 -10 113 29T72 147V534H162V161Q162 112 182 91T259 69Q300 69 333 80T395 107V534H486V0H409L400 46H394Q361 23 321 7T232 -10ZM335 738H429V640H335V738ZM135 738H229V640H135V738Z" />
<glyph unicode="&#xfd;" glyph-name="yacute" horiz-adv-x="511" d="M108 -207Q90 -207 71 -203T41 -191V-127Q51 -129 64 -130T92 -131Q128 -131 154 -113T197 -51L221 14L15 534H113L199 303Q211 270 222 232T243 162Q254 124 263 87H266Q275 125 286 163Q295
195 306 233T328 303L406 534H496L280 -63Q266 -102 250 -129T214 -173T168 -199T108 -207ZM317 786H420L300 617H214L317 786Z" />
<glyph unicode="&#xfe;" glyph-name="thorn" horiz-adv-x="578" d="M75 769H165V494H170Q190 513 229 528T318 544Q360 544 399 532T468 490T515 414T533 297V252Q533 183 517 133T469 52T394 5T296 -10Q251 -10 219 0T165 24V-203H75V769ZM288 64Q324 64 352
73T399 103T429 157T440 240V293Q440 343 430 376T402 430T356 458T293 466Q249 466 216 454T165 430V101Q182 87 215 76T288 64Z" />
<glyph unicode="&#xff;" glyph-name="ydieresis" horiz-adv-x="511" d="M108 -207Q90 -207 71 -203T41 -191V-127Q51 -129 64 -130T92 -131Q128 -131 154 -113T197 -51L221 14L15 534H113L199 303Q211 270 222 232T243 162Q254 124 263 87H266Q275 125 286 163Q295
195 306 233T328 303L406 534H496L280 -63Q266 -102 250 -129T214 -173T168 -199T108 -207ZM316 738H410V640H316V738ZM116 738H210V640H116V738Z" />
<glyph unicode="&#x100;" glyph-name="Amacron" horiz-adv-x="640" d="M275 721H366L616 0H519L450 203H178L109 0H21L275 721ZM205 283H422L371 434Q360 463 351 498T333 565Q324 601 316 636H313Q305 601 295 565Q287 534 277 499T256 434L205 283ZM184 877H458V801H184V877Z"
/>
<glyph unicode="&#x101;" glyph-name="amacron" horiz-adv-x="501" d="M204 -10Q168 -10 139 -1T87 27T53 74T41 141Q41 211 82 249T200 296L339 312V364Q339 394 332 414T310 445T270 460T210 465Q172 465 141 460T85 449V515Q120 529 159 536T246 544Q334 544
381 506T429 387V0H357L347 45H341Q322 22 289 6T204 -10ZM227 60Q261 60 291 70T339 97V244L223 232Q179 227 157 208T134 144Q134 101 159 81T227 60ZM365 725H639V649H365V725Z" />
<glyph unicode="&#x102;" glyph-name="Abreve" horiz-adv-x="640" d="M275 721H366L616 0H519L450 203H178L109 0H21L275 721ZM205 283H422L371 434Q360 463 351 498T333 565Q324 601 316 636H313Q305 601 295 565Q287 534 277 499T256 434L205 283ZM320 776Q286
776 259 787T212 817T181 862T168 917H241Q246 888 265 870T320 852Q355 852 375 870T400 917H473Q471 888 460 863T429 818T382 787T320 776Z" />
<glyph unicode="&#x103;" glyph-name="abreve" horiz-adv-x="501" d="M204 -10Q168 -10 139 -1T87 27T53 74T41 141Q41 211 82 249T200 296L339 312V364Q339 394 332 414T310 445T270 460T210 465Q172 465 141 460T85 449V515Q120 529 159 536T246 544Q334 544
381 506T429 387V0H357L347 45H341Q322 22 289 6T204 -10ZM227 60Q261 60 291 70T339 97V244L223 232Q179 227 157 208T134 144Q134 101 159 81T227 60ZM502 619Q473 619 446 628T399 657T365 707T351 778H421Q426 733 446 713T502 692Q575 692 584 778H654Q653
737 640 707T607 658T559 629T502 619Z" />
<glyph unicode="&#x104;" glyph-name="Aogonek" horiz-adv-x="640" d="M205 283H422L371 434Q360 463 351 498T333 565Q324 601 316 636H313Q305 601 295 565Q287 534 277 499T256 434L205 283ZM452 -123Q452 -78 472 -51T519 0L450 203H178L109 0H21L275 721H366L615
3Q581 -27 562 -54T542 -108Q542 -144 588 -144Q602 -144 615 -141T637 -134V-198Q626 -203 610 -208T570 -213Q512 -213 482 -188T452 -123Z" />
<glyph unicode="&#x105;" glyph-name="aogonek" horiz-adv-x="501" d="M227 60Q261 60 291 70T339 97V244L223 232Q179 227 157 208T134 144Q134 101 159 81T227 60ZM347 45H341Q322 22 289 6T204 -10Q168 -10 139 -1T87 27T53 74T41 141Q41 211 82 249T200 296L339
312V364Q339 394 332 414T310 445T270 460T210 465Q172 465 141 460T85 449V515Q120 529 159 536T246 544Q334 544 381 506T429 387V0Q399 -28 380 -54T360 -108Q360 -144 406 -144Q420 -144 433 -141T455 -134V-198Q444 -203 428 -208T388 -213Q330 -213 300 -188T270
-123Q270 -101 278 -82T299 -48T327 -20T357 0L347 45Z" />
<glyph unicode="&#x106;" glyph-name="Cacute" horiz-adv-x="594" d="M361 -12Q289 -12 232 8T134 71T71 177T49 330V395Q49 489 75 553T145 658T248 715T375 733Q432 733 474 723T550 694V615Q505 632 464 642T369 652Q321 652 281 639T212 598T166 523T149 411V332Q149
206 201 138T373 69Q438 69 481 83T558 114V34Q520 12 471 0T361 -12ZM381 777H293L371 916H478L381 777Z" />
<glyph unicode="&#x107;" glyph-name="cacute" horiz-adv-x="470" d="M287 -10Q231 -10 186 5T108 52T59 130T42 240V287Q42 354 61 402T115 482T194 529T292 544Q344 544 376 535T435 509V433Q417 440 402 446T369 456T332 463T286 466Q216 466 176 426T135 301V243Q135
148 176 108T297 68Q351 68 386 81T442 105V32Q416 15 379 3T287 -10ZM325 786H428L308 617H222L325 786Z" />
<glyph unicode="&#x108;" glyph-name="Ccircumflex" horiz-adv-x="594" d="M361 -12Q289 -12 232 8T134 71T71 177T49 330V395Q49 489 75 553T145 658T248 715T375 733Q432 733 474 723T550 694V615Q505 632 464 642T369 652Q321 652 281 639T212 598T166 523T149
411V332Q149 206 201 138T373 69Q438 69 481 83T558 114V34Q520 12 471 0T361 -12ZM304 917H382L502 777H427L342 845L259 777H184L304 917Z" />
<glyph unicode="&#x109;" glyph-name="ccircumflex" horiz-adv-x="470" d="M287 -10Q231 -10 186 5T108 52T59 130T42 240V287Q42 354 61 402T115 482T194 529T292 544Q344 544 376 535T435 509V433Q417 440 402 446T369 456T332 463T286 466Q216 466 176 426T135
301V243Q135 148 176 108T297 68Q351 68 386 81T442 105V32Q416 15 379 3T287 -10ZM232 797H310L437 617H362L270 725L180 617H105L232 797Z" />
<glyph unicode="&#x10a;" glyph-name="Cdotaccent" horiz-adv-x="594" d="M361 -12Q289 -12 232 8T134 71T71 177T49 330V395Q49 489 75 553T145 658T248 715T375 733Q432 733 474 723T550 694V615Q505 632 464 642T369 652Q321 652 281 639T212 598T166 523T149
411V332Q149 206 201 138T373 69Q438 69 481 83T558 114V34Q520 12 471 0T361 -12ZM293 888H393V790H293V888Z" />
<glyph unicode="&#x10b;" glyph-name="cdotaccent" horiz-adv-x="470" d="M287 -10Q231 -10 186 5T108 52T59 130T42 240V287Q42 354 61 402T115 482T194 529T292 544Q344 544 376 535T435 509V433Q417 440 402 446T369 456T332 463T286 466Q216 466 176 426T135
301V243Q135 148 176 108T297 68Q351 68 386 81T442 105V32Q416 15 379 3T287 -10ZM221 737H321V640H221V737Z" />
<glyph unicode="&#x10c;" glyph-name="Ccaron" horiz-adv-x="594" d="M361 -12Q289 -12 232 8T134 71T71 177T49 330V395Q49 489 75 553T145 658T248 715T375 733Q432 733 474 723T550 694V615Q505 632 464 642T369 652Q321 652 281 639T212 598T166 523T149 411V332Q149
206 201 138T373 69Q438 69 481 83T558 114V34Q520 12 471 0T361 -12ZM382 777H304L184 917H259L344 849L427 917H502L382 777Z" />
<glyph unicode="&#x10d;" glyph-name="ccaron" horiz-adv-x="470" d="M287 -10Q231 -10 186 5T108 52T59 130T42 240V287Q42 354 61 402T115 482T194 529T292 544Q344 544 376 535T435 509V433Q417 440 402 446T369 456T332 463T286 466Q216 466 176 426T135 301V243Q135
148 176 108T297 68Q351 68 386 81T442 105V32Q416 15 379 3T287 -10ZM314 617H236L109 797H184L276 689L366 797H441L314 617Z" />
<glyph unicode="&#x10e;" glyph-name="Dcaron" horiz-adv-x="687" d="M90 721H314Q475 721 556 643T638 401V340Q638 259 620 196T563 90T463 23T316 0H90V721ZM318 81Q378 81 419 94T487 137T526 213T538 325V401Q538 470 524 516T480 589T408 628T306 640H183V81H318ZM367
777H289L169 917H244L329 849L412 917H487L367 777Z" />
<glyph unicode="&#x10f;" glyph-name="dcaron" horiz-adv-x="578" d="M262 -10Q224 -10 186 2T116 42T65 118T45 235V279Q45 349 62 399T111 481T185 528T279 544Q327 544 359 534T413 511V769H503V0H427L418 43H413Q390 19 353 5T262 -10ZM291 64Q335 64 365
78T413 107V434Q396 448 363 457T290 466Q254 466 226 457T179 428T149 374T138 292V239Q138 188 149 155T180 101T229 73T291 64ZM577 769H671L643 596H573L577 769Z" />
<glyph unicode="&#x110;" glyph-name="Dcroat" horiz-adv-x="687" d="M90 321H17V401H90V721H314Q475 721 556 643T638 401V340Q638 259 620 196T563 90T463 23T316 0H90V321ZM318 81Q378 81 419 94T487 137T526 213T538 325V401Q538 470 524 516T480 589T408
628T306 640H183V401H384V321H183V81H318Z" />
<glyph unicode="&#x111;" glyph-name="dcroat" horiz-adv-x="578" d="M239 698H580V628H239V698ZM262 -10Q224 -10 186 2T116 42T65 118T45 235V279Q45 349 62 399T111 481T185 528T279 544Q327 544 359 534T413 511V769H503V0H427L418 43H413Q390 19 353 5T262
-10ZM291 64Q335 64 365 78T413 107V434Q396 448 363 457T290 466Q254 466 226 457T179 428T149 374T138 292V239Q138 188 149 155T180 101T229 73T291 64Z" />
<glyph unicode="&#x112;" glyph-name="Emacron" horiz-adv-x="581" d="M90 721H513V641H183V412H437V332H183V80H516V0H90V721ZM168 877H442V801H168V877Z" />
<glyph unicode="&#x113;" glyph-name="emacron" horiz-adv-x="529" d="M293 -10Q231 -10 184 8T106 59T58 140T42 245V290Q42 356 61 404T112 483T186 529T273 544Q382 544 434 483T487 302V240H135Q136 145 181 107T307 69Q360 69 397 79T471 109V42Q448 24 404
7T293 -10ZM269 470Q246 470 223 463T181 439T149 391T135 314H391Q391 398 360 434T269 470ZM131 725H405V649H131V725Z" />
<glyph unicode="&#x114;" glyph-name="Ebreve" horiz-adv-x="581" d="M90 721H513V641H183V412H437V332H183V80H516V0H90V721ZM305 776Q271 776 244 787T197 817T166 862T153 917H226Q231 888 250 870T305 852Q340 852 360 870T385 917H458Q456 888 445 863T414
818T367 787T305 776Z" />
<glyph unicode="&#x115;" glyph-name="ebreve" horiz-adv-x="529" d="M293 -10Q231 -10 184 8T106 59T58 140T42 245V290Q42 356 61 404T112 483T186 529T273 544Q382 544 434 483T487 302V240H135Q136 145 181 107T307 69Q360 69 397 79T471 109V42Q448 24 404
7T293 -10ZM269 470Q246 470 223 463T181 439T149 391T135 314H391Q391 398 360 434T269 470ZM268 619Q239 619 212 628T165 657T131 707T117 778H187Q192 733 212 713T268 692Q341 692 350 778H420Q419 737 406 707T373 658T325 629T268 619Z" />
<glyph unicode="&#x116;" glyph-name="Edotaccent" horiz-adv-x="581" d="M90 721H513V641H183V412H437V332H183V80H516V0H90V721ZM256 888H356V790H256V888Z" />
<glyph unicode="&#x117;" glyph-name="edotaccent" horiz-adv-x="529" d="M293 -10Q231 -10 184 8T106 59T58 140T42 245V290Q42 356 61 404T112 483T186 529T273 544Q382 544 434 483T487 302V240H135Q136 145 181 107T307 69Q360 69 397 79T471 109V42Q448 24
404 7T293 -10ZM269 470Q246 470 223 463T181 439T149 391T135 314H391Q391 398 360 434T269 470ZM218 737H318V640H218V737Z" />
<glyph unicode="&#x118;" glyph-name="Eogonek" horiz-adv-x="581" d="M90 721H513V641H183V412H437V332H183V80H516V0H90V721ZM419 -213Q361 -213 331 -188T301 -123Q301 -101 308 -82T328 -48T354 -21T383 0H460Q430 -28 411 -54T391 -108Q391 -144 437 -144Q451
-144 464 -141T486 -134V-198Q475 -203 459 -208T419 -213Z" />
<glyph unicode="&#x119;" glyph-name="eogonek" horiz-adv-x="529" d="M360 -213Q302 -213 272 -188T242 -123Q242 -83 264 -56T311 -10H293Q231 -10 184 8T106 59T58 140T42 245V290Q42 356 61 404T112 483T186 529T273 544Q382 544 434 483T487 302V240H135Q136
145 181 107T307 69Q360 69 397 79T471 109V42Q466 38 459 34T444 24Q391 -5 362 -40T332 -108Q332 -144 378 -144Q392 -144 405 -141T427 -134V-198Q416 -203 400 -208T360 -213ZM269 470Q246 470 223 463T181 439T149 391T135 314H391Q391 398 360 434T269 470Z"
/>
<glyph unicode="&#x11a;" glyph-name="Ecaron" horiz-adv-x="581" d="M90 721H513V641H183V412H437V332H183V80H516V0H90V721ZM345 777H267L147 917H222L307 849L390 917H465L345 777Z" />
<glyph unicode="&#x11b;" glyph-name="ecaron" horiz-adv-x="529" d="M293 -10Q231 -10 184 8T106 59T58 140T42 245V290Q42 356 61 404T112 483T186 529T273 544Q382 544 434 483T487 302V240H135Q136 145 181 107T307 69Q360 69 397 79T471 109V42Q448 24 404
7T293 -10ZM269 470Q246 470 223 463T181 439T149 391T135 314H391Q391 398 360 434T269 470ZM307 617H229L102 797H177L269 689L359 797H434L307 617Z" />
<glyph unicode="&#x11c;" glyph-name="Gcircumflex" horiz-adv-x="675" d="M379 -12Q304 -12 244 7T140 66T73 170T49 324V385Q49 485 77 551T151 658T259 716T387 733Q453 733 497 720T574 690V608Q542 623 497 637T380 652Q315 652 271 631T199 575T161 495T149
400V326Q149 270 159 223T195 142T267 88T382 68Q417 68 451 73T508 87V275H361V354H601V29Q560 12 504 0T379 -12ZM312 917H390L510 777H435L350 845L267 777H192L312 917Z" />
<glyph unicode="&#x11d;" glyph-name="gcircumflex" horiz-adv-x="578" d="M261 -213Q234 -213 206 -210T154 -202T109 -189T75 -172V-104Q85 -108 102 -113T142 -124T191 -132T244 -136Q324 -136 368 -106T413 3V64H408Q385 41 350 28T262 14Q224 14 186 25T116
63T65 134T45 247V291Q45 358 62 406T111 485T185 530T279 544Q327 544 359 531T413 503H418L427 534H503V-7Q503 -63 487 -102T440 -166T364 -202T261 -213ZM291 89Q335 89 365 103T413 132V427Q396 441 363 453T290 465Q254 465 226 458T179 432T149 382T138
304V251Q138 202 149 171T180 121T229 96T291 89ZM248 797H326L453 617H378L286 725L196 617H121L248 797Z" />
<glyph unicode="&#x11e;" glyph-name="Gbreve" horiz-adv-x="675" d="M379 -12Q304 -12 244 7T140 66T73 170T49 324V385Q49 485 77 551T151 658T259 716T387 733Q453 733 497 720T574 690V608Q542 623 497 637T380 652Q315 652 271 631T199 575T161 495T149 400V326Q149
270 159 223T195 142T267 88T382 68Q417 68 451 73T508 87V275H361V354H601V29Q560 12 504 0T379 -12ZM351 776Q317 776 290 787T243 817T212 862T199 917H272Q277 888 296 870T351 852Q386 852 406 870T431 917H504Q502 888 491 863T460 818T413 787T351 776Z"
/>
<glyph unicode="&#x11f;" glyph-name="gbreve" horiz-adv-x="578" d="M261 -213Q234 -213 206 -210T154 -202T109 -189T75 -172V-104Q85 -108 102 -113T142 -124T191 -132T244 -136Q324 -136 368 -106T413 3V64H408Q385 41 350 28T262 14Q224 14 186 25T116 63T65
134T45 247V291Q45 358 62 406T111 485T185 530T279 544Q327 544 359 531T413 503H418L427 534H503V-7Q503 -63 487 -102T440 -166T364 -202T261 -213ZM291 89Q335 89 365 103T413 132V427Q396 441 363 453T290 465Q254 465 226 458T179 432T149 382T138 304V251Q138
202 149 171T180 121T229 96T291 89ZM284 619Q255 619 228 628T181 657T147 707T133 778H203Q208 733 228 713T284 692Q357 692 366 778H436Q435 737 422 707T389 658T341 629T284 619Z" />
<glyph unicode="&#x120;" glyph-name="Gdotaccent" horiz-adv-x="675" d="M379 -12Q304 -12 244 7T140 66T73 170T49 324V385Q49 485 77 551T151 658T259 716T387 733Q453 733 497 720T574 690V608Q542 623 497 637T380 652Q315 652 271 631T199 575T161 495T149
400V326Q149 270 159 223T195 142T267 88T382 68Q417 68 451 73T508 87V275H361V354H601V29Q560 12 504 0T379 -12ZM303 888H403V790H303V888Z" />
<glyph unicode="&#x121;" glyph-name="gdotaccent" horiz-adv-x="578" d="M261 -213Q234 -213 206 -210T154 -202T109 -189T75 -172V-104Q85 -108 102 -113T142 -124T191 -132T244 -136Q324 -136 368 -106T413 3V64H408Q385 41 350 28T262 14Q224 14 186 25T116
63T65 134T45 247V291Q45 358 62 406T111 485T185 530T279 544Q327 544 359 531T413 503H418L427 534H503V-7Q503 -63 487 -102T440 -166T364 -202T261 -213ZM291 89Q335 89 365 103T413 132V427Q396 441 363 453T290 465Q254 465 226 458T179 432T149 382T138
304V251Q138 202 149 171T180 121T229 96T291 89ZM234 737H334V640H234V737Z" />
<glyph unicode="&#x122;" glyph-name="Gcommaaccent" horiz-adv-x="675" d="M379 -12Q304 -12 244 7T140 66T73 170T49 324V385Q49 485 77 551T151 658T259 716T387 733Q453 733 497 720T574 690V608Q542 623 497 637T380 652Q315 652 271 631T199 575T161 495T149
400V326Q149 270 159 223T195 142T267 88T382 68Q417 68 451 73T508 87V275H361V354H601V29Q560 12 504 0T379 -12ZM300 -67H407L371 -232H295L300 -67Z" />
<glyph unicode="&#x123;" glyph-name="gcommaaccent" horiz-adv-x="578" d="M261 -213Q234 -213 206 -210T154 -202T109 -189T75 -172V-104Q85 -108 102 -113T142 -124T191 -132T244 -136Q324 -136 368 -106T413 3V64H408Q385 41 350 28T262 14Q224 14 186 25T116
63T65 134T45 247V291Q45 358 62 406T111 485T185 530T279 544Q327 544 359 531T413 503H418L427 534H503V-7Q503 -63 487 -102T440 -166T364 -202T261 -213ZM291 89Q335 89 365 103T413 132V427Q396 441 363 453T290 465Q254 465 226 458T179 432T149 382T138
304V251Q138 202 149 171T180 121T229 96T291 89ZM335 617H228L264 782H340L335 617Z" />
<glyph unicode="&#x124;" glyph-name="Hcircumflex" horiz-adv-x="708" d="M90 721H183V413H525V721H618V0H525V333H183V0H90V721ZM315 917H393L513 777H438L353 845L270 777H195L315 917Z" />
<glyph unicode="&#x125;" glyph-name="hcircumflex" horiz-adv-x="567" d="M75 769H165V490H170Q202 513 248 528T343 544Q421 544 458 510T496 397V0H406V378Q406 401 402 417T386 444T354 460T303 465Q268 465 231 454T165 430V0H75V769ZM255 967H333L453 827H378L293
895L210 827H135L255 967Z" />
<glyph unicode="&#x126;" glyph-name="Hbar" horiz-adv-x="728" d="M731 535H-3V609H731V535ZM100 721H193V413H535V721H628V0H535V333H193V0H100V721Z" />
<glyph unicode="&#x127;" glyph-name="hbar" horiz-adv-x="567" d="M339 628H-2V698H339V628ZM75 769H165V490H170Q202 513 248 528T343 544Q421 544 458 510T496 397V0H406V378Q406 401 402 417T386 444T354 460T303 465Q268 465 231 454T165 430V0H75V769Z" />
<glyph unicode="&#x128;" glyph-name="Itilde" horiz-adv-x="285" d="M96 721H189V0H96V721ZM226 781Q233 843 264 873T335 904Q355 904 373 898T407 883T437 869T464 862Q482 862 493 874T508 906H572Q566 844 535 814T463 783Q443 783 426 789T392 803T362 817T334
824Q316 824 305 813T290 781H226V781Z" />
<glyph unicode="&#x129;" glyph-name="itilde" horiz-adv-x="246" d="M78 534H168V0H78V534ZM207 630Q214 690 245 719T316 748Q336 748 354 742T388 727T418 713T445 706Q463 706 475 718T491 750H553Q547 690 516 661T444 632Q424 632 407 638T373 652T343 666T315
673Q297 673 285 662T269 630H207V630Z" />
<glyph unicode="&#x12a;" glyph-name="Imacron" horiz-adv-x="285" d="M96 721H189V0H96V721ZM262 877H536V801H262V877Z" />
<glyph unicode="&#x12b;" glyph-name="imacron" horiz-adv-x="246" d="M6 725H240V649H6V725ZM78 534H168V0H78V534Z" />
<glyph unicode="&#x12c;" glyph-name="Ibreve" horiz-adv-x="285" d="M96 721H189V0H96V721ZM399 776Q365 776 338 787T291 817T260 862T247 917H320Q325 888 344 870T399 852Q434 852 454 870T479 917H552Q550 888 539 863T508 818T461 787T399 776Z" />
<glyph unicode="&#x12d;" glyph-name="ibreve" horiz-adv-x="246" d="M78 534H168V0H78V534ZM380 619Q351 619 324 628T277 657T243 707T229 778H299Q304 733 324 713T380 692Q453 692 462 778H532Q531 737 518 707T485 658T437 629T380 619Z" />
<glyph unicode="&#x12e;" glyph-name="Iogonek" horiz-adv-x="285" d="M96 721H189V3Q157 -26 137 -53T117 -108Q117 -144 163 -144Q177 -144 190 -141T212 -134V-198Q201 -203 185 -208T145 -213Q87 -213 57 -188T27 -123Q27 -99 32 -81T48 -50T70 -25T96 -5V721Z" />
<glyph unicode="&#x12f;" glyph-name="iogonek" horiz-adv-x="246" d="M78 534H168V2Q136 -27 117 -54T97 -108Q97 -144 143 -144Q157 -144 170 -141T192 -134V-198Q181 -203 165 -208T125 -213Q67 -213 37 -188T7 -123Q7 -100 13 -82T30 -50T53 -26T78 -6V534ZM75
734H171V640H75V734Z" />
<glyph unicode="&#x130;" glyph-name="Idotaccent" horiz-adv-x="285" d="M96 721H189V0H96V721ZM349 888H449V790H349V888Z" />
<glyph unicode="&#x131;" glyph-name="dotlessi" horiz-adv-x="246" d="M78 534H168V0H78V534Z" />
<glyph unicode="&#x132;" glyph-name="IJ" horiz-adv-x="718" d="M448 -7Q409 -7 380 0T322 21V97Q345 89 374 82T440 74Q492 74 515 101T539 184V721H633V181Q633 140 623 106T591 47T534 7T448 -7ZM96 721H189V0H96V721Z" />
<glyph unicode="&#x133;" glyph-name="ij" horiz-adv-x="492" d="M268 -207Q240 -207 222 -203T188 -189V-126Q202 -128 216 -130T245 -132Q282 -132 303 -113T324 -52V534H414V-57Q414 -90 406 -117T380 -165T335 -196T268 -207ZM75 734H171V640H75V734ZM78 534H168V0H78V534ZM321
734H417V640H321V734Z" />
<glyph unicode="&#x134;" glyph-name="Jcircumflex" horiz-adv-x="463" d="M183 -7Q138 -7 107 0T47 21V97Q71 88 102 81T175 74Q234 74 259 104T284 190V721H378V187Q378 146 367 111T333 50T272 8T183 -7ZM292 917H370L490 777H415L330 845L247 777H172L292 917Z" />
<glyph unicode="&#x135;" glyph-name="jcircumflex" horiz-adv-x="246" d="M22 -207Q-6 -207 -24 -203T-58 -189V-126Q-44 -128 -30 -130T-1 -132Q36 -132 57 -113T78 -52V534H168V-57Q168 -90 160 -117T134 -165T89 -196T22 -207ZM341 797H419L546 617H471L379
725L289 617H214L341 797Z" />
<glyph unicode="&#x136;" glyph-name="Kcommaaccent" horiz-adv-x="621" d="M212 368L484 721H584L318 379L598 0H488L212 368ZM90 721H183V0H90V721ZM266 -67H373L337 -232H261L266 -67Z" />
<glyph unicode="&#x137;" glyph-name="kcommaaccent" horiz-adv-x="510" d="M75 769H165V0H75V769ZM189 276L376 534H473L288 282L490 0H386L189 276ZM211 -67H318L282 -232H206L211 -67Z" />
<glyph unicode="&#x139;" glyph-name="Lacute" horiz-adv-x="535" d="M90 721H183V80H497V0H90V721ZM437 777H349L427 916H534L437 777Z" />
<glyph unicode="&#x13a;" glyph-name="lacute" horiz-adv-x="300" d="M199 -6Q144 -6 111 22T78 121V769H169V132Q169 94 182 82T223 69Q250 69 284 77V13Q268 6 250 0T199 -6ZM426 827H338L416 966H523L426 827Z" />
<glyph unicode="&#x13b;" glyph-name="Lcommaaccent" horiz-adv-x="535" d="M90 721H183V80H497V0H90V721ZM240 -67H347L311 -232H235L240 -67Z" />
<glyph unicode="&#x13c;" glyph-name="lcommaaccent" horiz-adv-x="300" d="M199 -6Q144 -6 111 22T78 121V769H169V132Q169 94 182 82T223 69Q250 69 284 77V13Q268 6 250 0T199 -6ZM382 -67H489L453 -232H377L382 -67Z" />
<glyph unicode="&#x13d;" glyph-name="Lcaron" horiz-adv-x="535" d="M90 721H183V80H497V0H90V721ZM266 978H360L332 805H262L266 978Z" />
<glyph unicode="&#x13e;" glyph-name="lcaron" horiz-adv-x="300" d="M243 769H337L309 596H239L243 769ZM199 -6Q144 -6 111 22T78 121V769H169V132Q169 94 182 82T223 69Q250 69 284 77V13Q268 6 250 0T199 -6Z" />
<glyph unicode="&#x13f;" glyph-name="Ldot" horiz-adv-x="545" d="M90 721H183V80H497V0H90V721ZM364 455H479V337H364V455Z" />
<glyph unicode="&#x140;" glyph-name="ldot" horiz-adv-x="394" d="M199 -6Q144 -6 111 22T78 121V769H169V132Q169 94 182 82T223 69Q250 69 284 77V13Q268 6 250 0T199 -6ZM263 457H378V339H263V457Z" />
<glyph unicode="&#x141;" glyph-name="Lslash" horiz-adv-x="535" d="M11 304L90 338V721H183V379L393 470V389L183 298V80H497V0H90V257L11 223V304Z" />
<glyph unicode="&#x142;" glyph-name="lslash" horiz-adv-x="300" d="M8 385L78 424V769H169V474L281 537V454L169 391V132Q169 94 182 82T223 69Q250 69 284 77V13Q268 6 250 0T199 -6Q144 -6 111 22T78 121V341L8 302V385Z" />
<glyph unicode="&#x143;" glyph-name="Nacute" horiz-adv-x="704" d="M90 721H200L420 343Q438 311 458 273T496 200Q516 160 536 120H539Q536 164 534 210Q532 248 531 293T529 376V721H614V0H517L282 408Q263 440 244 478T207 551Q188 591 168 631H165Q167 587
170 543Q172 505 173 462T175 382V0H90V721ZM397 777H309L387 916H494L397 777Z" />
<glyph unicode="&#x144;" glyph-name="nacute" horiz-adv-x="567" d="M75 534H161V488H166Q199 511 247 527T343 544Q421 544 458 510T496 397V0H406V378Q406 401 402 417T386 444T354 460T303 465Q268 465 231 454T165 430V0H75V534ZM343 786H446L326 617H240L343 786Z" />
<glyph unicode="&#x145;" glyph-name="Ncommaaccent" horiz-adv-x="704" d="M90 721H200L420 343Q438 311 458 273T496 200Q516 160 536 120H539Q536 164 534 210Q532 248 531 293T529 376V721H614V0H517L282 408Q263 440 244 478T207 551Q188 591 168 631H165Q167
587 170 543Q172 505 173 462T175 382V0H90V721ZM299 -67H406L370 -232H294L299 -67Z" />
<glyph unicode="&#x146;" glyph-name="ncommaaccent" horiz-adv-x="567" d="M75 534H161V488H166Q199 511 247 527T343 544Q421 544 458 510T496 397V0H406V378Q406 401 402 417T386 444T354 460T303 465Q268 465 231 454T165 430V0H75V534ZM232 -67H339L303 -232H227L232
-67Z" />
<glyph unicode="&#x147;" glyph-name="Ncaron" horiz-adv-x="704" d="M90 721H200L420 343Q438 311 458 273T496 200Q516 160 536 120H539Q536 164 534 210Q532 248 531 293T529 376V721H614V0H517L282 408Q263 440 244 478T207 551Q188 591 168 631H165Q167 587
170 543Q172 505 173 462T175 382V0H90V721ZM395 777H317L197 917H272L357 849L440 917H515L395 777Z" />
<glyph unicode="&#x148;" glyph-name="ncaron" horiz-adv-x="567" d="M75 534H161V488H166Q199 511 247 527T343 544Q421 544 458 510T496 397V0H406V378Q406 401 402 417T386 444T354 460T303 465Q268 465 231 454T165 430V0H75V534ZM322 617H244L117 797H192L284
689L374 797H449L322 617Z" />
<glyph unicode="&#x149;" glyph-name="napostrophe" horiz-adv-x="627" d="M135 534H221V488H226Q259 511 307 527T403 544Q481 544 518 510T556 397V0H466V378Q466 401 462 417T446 444T414 460T363 465Q328 465 291 454T225 430V0H135V534ZM245 721H351L307
473H228L245 721Z" />
<glyph unicode="&#x14a;" glyph-name="Eng" horiz-adv-x="704" d="M429 -207Q387 -207 359 -201T304 -181V-108Q326 -116 354 -121T418 -127Q472 -127 496 -100T521 -18V2L282 408Q263 440 244 478T207 551Q188 591 168 631H165Q167 587 170 543Q172 505 173 462T175
382V0H90V721H200L420 348Q439 316 459 277T497 204Q517 164 536 125H539Q536 170 534 216Q532 255 531 300T529 383V721H614V-22Q614 -61 604 -95T571 -153T513 -192T429 -207Z" />
<glyph unicode="&#x14b;" glyph-name="eng" horiz-adv-x="567" d="M350 -207Q322 -207 304 -203T270 -189V-126Q284 -128 298 -130T327 -132Q364 -132 385 -113T406 -52V378Q406 401 402 417T386 444T354 460T303 465Q268 465 231 454T165 430V0H75V534H161V488H166Q199
511 247 527T343 544Q421 544 458 510T496 397V-57Q496 -90 488 -117T462 -165T417 -196T350 -207Z" />
<glyph unicode="&#x14c;" glyph-name="Omacron" horiz-adv-x="708" d="M353 -12Q282 -12 226 10T131 75T70 182T49 330V391Q49 471 70 534T131 642T228 709T357 733Q427 733 483 711T578 646T638 538T659 390V329Q659 249 638 186T578 79T481 12T353 -12ZM356
66Q410 66 448 85T511 137T547 215T559 314V389Q559 448 549 497T515 581T451 635T352 655Q298 655 260 637T197 585T161 507T149 408V333Q149 274 159 225T193 140T257 86T356 66ZM217 877H491V801H217V877Z" />
<glyph unicode="&#x14d;" glyph-name="omacron" horiz-adv-x="564" d="M282 -10Q167 -10 105 56T42 241V289Q42 348 59 395T108 475T184 526T283 544Q396 544 459 477T522 292V245Q522 186 505 139T456 58T380 8T282 -10ZM284 64Q353 64 390 108T428 235V294Q428
344 417 377T385 431T339 460T281 469Q211 469 173 424T135 298V239Q135 188 146 155T178 101T226 73T284 64ZM145 725H419V649H145V725Z" />
<glyph unicode="&#x14e;" glyph-name="Obreve" horiz-adv-x="708" d="M353 -12Q282 -12 226 10T131 75T70 182T49 330V391Q49 471 70 534T131 642T228 709T357 733Q427 733 483 711T578 646T638 538T659 390V329Q659 249 638 186T578 79T481 12T353 -12ZM356 66Q410
66 448 85T511 137T547 215T559 314V389Q559 448 549 497T515 581T451 635T352 655Q298 655 260 637T197 585T161 507T149 408V333Q149 274 159 225T193 140T257 86T356 66ZM354 776Q320 776 293 787T246 817T215 862T202 917H275Q280 888 299 870T354 852Q389
852 409 870T434 917H507Q505 888 494 863T463 818T416 787T354 776Z" />
<glyph unicode="&#x14f;" glyph-name="obreve" horiz-adv-x="564" d="M282 -10Q167 -10 105 56T42 241V289Q42 348 59 395T108 475T184 526T283 544Q396 544 459 477T522 292V245Q522 186 505 139T456 58T380 8T282 -10ZM284 64Q353 64 390 108T428 235V294Q428
344 417 377T385 431T339 460T281 469Q211 469 173 424T135 298V239Q135 188 146 155T178 101T226 73T284 64ZM281 619Q252 619 225 628T178 657T144 707T130 778H200Q205 733 225 713T281 692Q354 692 363 778H433Q432 737 419 707T386 658T338 629T281 619Z"
/>
<glyph unicode="&#x150;" glyph-name="Ohungarumlaut" horiz-adv-x="708" d="M353 -12Q282 -12 226 10T131 75T70 182T49 330V391Q49 471 70 534T131 642T228 709T357 733Q427 733 483 711T578 646T638 538T659 390V329Q659 249 638 186T578 79T481 12T353 -12ZM356
66Q410 66 448 85T511 137T547 215T559 314V389Q559 448 549 497T515 581T451 635T352 655Q298 655 260 637T197 585T161 507T149 408V333Q149 274 159 225T193 140T257 86T356 66ZM438 916H537L476 777H400L438 916ZM264 916H363L304 777H228L264 916Z" />
<glyph unicode="&#x151;" glyph-name="ohungarumlaut" horiz-adv-x="564" d="M282 -10Q167 -10 105 56T42 241V289Q42 348 59 395T108 475T184 526T283 544Q396 544 459 477T522 292V245Q522 186 505 139T456 58T380 8T282 -10ZM284 64Q353 64 390 108T428 235V294Q428
344 417 377T385 431T339 460T281 469Q211 469 173 424T135 298V239Q135 188 146 155T178 101T226 73T284 64ZM383 786H480L400 617H325L383 786ZM211 786H308L227 617H152L211 786Z" />
<glyph unicode="&#x152;" glyph-name="OE" horiz-adv-x="978" d="M371 0Q221 0 135 82T49 330V391Q49 467 69 528T129 632T229 698T369 721H910V641H580V412H834V332H580V80H913V0H371ZM487 81V640H367Q149 640 149 408V333Q149 265 165 217T212 139T284 95T379 81H487Z" />
<glyph unicode="&#x153;" glyph-name="oe" horiz-adv-x="915" d="M679 -10Q598 -10 549 19T474 102Q448 48 400 19T282 -10Q167 -10 105 56T42 241V289Q42 348 59 395T108 475T184 526T283 544Q356 544 403 516T475 433Q502 490 550 517T659 544Q768 544 820 483T873
302V240H521Q522 145 567 107T693 69Q746 69 783 79T857 109V42Q834 24 790 7T679 -10ZM284 64Q353 64 390 108T428 235V294Q428 344 417 377T385 431T339 460T281 469Q211 469 173 424T135 298V239Q135 188 146 155T178 101T226 73T284 64ZM655 470Q632 470 609
463T567 439T535 391T521 314H777Q777 398 746 434T655 470Z" />
<glyph unicode="&#x154;" glyph-name="Racute" horiz-adv-x="617" d="M90 721H307Q425 721 481 670T537 516Q537 438 502 395T403 328V322L588 0H482L310 308H183V0H90V721ZM301 380Q378 380 407 412T437 514Q437 581 407 611T300 641H183V380H301ZM335 777H247L325
916H432L335 777Z" />
<glyph unicode="&#x155;" glyph-name="racute" horiz-adv-x="368" d="M75 534H161V471H166Q177 484 194 496T231 519T272 534T315 540Q338 540 348 536V454Q338 456 327 457T308 458Q271 458 232 445T165 413V0H75V534ZM532 786H635L515 617H429L532 786Z" />
<glyph unicode="&#x156;" glyph-name="Rcommaaccent" horiz-adv-x="617" d="M90 721H307Q425 721 481 670T537 516Q537 438 502 395T403 328V322L588 0H482L310 308H183V0H90V721ZM301 380Q378 380 407 412T437 514Q437 581 407 611T300 641H183V380H301ZM268
-67H375L339 -232H263L268 -67Z" />
<glyph unicode="&#x157;" glyph-name="rcommaaccent" horiz-adv-x="368" d="M67 -67H174L138 -232H62L67 -67ZM75 534H161V471H166Q177 484 194 496T231 519T272 534T315 540Q338 540 348 536V454Q338 456 327 457T308 458Q271 458 232 445T165 413V0H75V534Z" />
<glyph unicode="&#x158;" glyph-name="Rcaron" horiz-adv-x="617" d="M90 721H307Q425 721 481 670T537 516Q537 438 502 395T403 328V322L588 0H482L310 308H183V0H90V721ZM301 380Q378 380 407 412T437 514Q437 581 407 611T300 641H183V380H301ZM336 777H258L138
917H213L298 849L381 917H456L336 777Z" />
<glyph unicode="&#x159;" glyph-name="rcaron" horiz-adv-x="368" d="M517 617H439L312 797H387L479 689L569 797H644L517 617ZM75 534H161V471H166Q177 484 194 496T231 519T272 534T315 540Q338 540 348 536V454Q338 456 327 457T308 458Q271 458 232 445T165
413V0H75V534Z" />
<glyph unicode="&#x15a;" glyph-name="Sacute" horiz-adv-x="535" d="M249 -14Q182 -14 132 0T45 34V114Q87 93 137 81T244 68Q322 68 357 101T393 191Q393 217 387 236T368 269T334 295T281 317L207 342Q171 354 143 370T95 410T65 465T54 539Q54 581 68 617T110
678T181 718T279 733Q343 733 383 721T453 694V614Q421 628 378 640T276 652Q215 652 181 625T147 547Q147 523 152 505T168 472T198 447T245 427L319 402Q358 389 389 373T443 333T477 277T489 199Q489 151 475 112T432 45T357 2T249 -14ZM308 777H220L298 916H405L308
777Z" />
<glyph unicode="&#x15b;" glyph-name="sacute" horiz-adv-x="441" d="M216 -9Q165 -9 122 0T46 28V101Q63 94 79 88T113 78T154 71T204 68Q263 68 289 87T316 141Q316 174 297 193T229 225L179 238Q150 245 126 256T85 285T58 327T48 387Q48 457 92 500T232 544Q286
544 319 534T376 513V439Q356 448 319 457T237 467Q134 467 134 396Q134 364 152 348T210 320L260 307Q299 297 326 285T371 254T397 211T405 150Q405 71 354 31T216 -9ZM530 786H633L513 617H427L530 786Z" />
<glyph unicode="&#x15c;" glyph-name="Scircumflex" horiz-adv-x="535" d="M249 -14Q182 -14 132 0T45 34V114Q87 93 137 81T244 68Q322 68 357 101T393 191Q393 217 387 236T368 269T334 295T281 317L207 342Q171 354 143 370T95 410T65 465T54 539Q54 581 68
617T110 678T181 718T279 733Q343 733 383 721T453 694V614Q421 628 378 640T276 652Q215 652 181 625T147 547Q147 523 152 505T168 472T198 447T245 427L319 402Q358 389 389 373T443 333T477 277T489 199Q489 151 475 112T432 45T357 2T249 -14ZM231 917H309L429
777H354L269 845L186 777H111L231 917Z" />
<glyph unicode="&#x15d;" glyph-name="scircumflex" horiz-adv-x="441" d="M216 -9Q165 -9 122 0T46 28V101Q63 94 79 88T113 78T154 71T204 68Q263 68 289 87T316 141Q316 174 297 193T229 225L179 238Q150 245 126 256T85 285T58 327T48 387Q48 457 92 500T232
544Q286 544 319 534T376 513V439Q356 448 319 457T237 467Q134 467 134 396Q134 364 152 348T210 320L260 307Q299 297 326 285T371 254T397 211T405 150Q405 71 354 31T216 -9ZM437 797H515L642 617H567L475 725L385 617H310L437 797Z" />
<glyph unicode="&#x15e;" glyph-name="Scedilla" horiz-adv-x="535" d="M249 -14Q182 -14 132 0T45 34V114Q87 93 137 81T244 68Q322 68 357 101T393 191Q393 217 387 236T368 269T334 295T281 317L207 342Q171 354 143 370T95 410T65 465T54 539Q54 581 68 617T110
678T181 718T279 733Q343 733 383 721T453 694V614Q421 628 378 640T276 652Q215 652 181 625T147 547Q147 523 152 505T168 472T198 447T245 427L319 402Q358 389 389 373T443 333T477 277T489 199Q489 151 475 112T432 45T357 2T249 -14ZM413 -193Q450 -188 473
-183T510 -171T529 -157T534 -140Q534 -131 531 -125T517 -115T490 -109T445 -107V0H511V-55Q562 -60 586 -79T611 -137Q611 -158 604 -176T575 -209T515 -233T413 -247V-193Z" />
<glyph unicode="&#x15f;" glyph-name="scedilla" horiz-adv-x="441" d="M216 -9Q165 -9 122 0T46 28V101Q63 94 79 88T113 78T154 71T204 68Q263 68 289 87T316 141Q316 174 297 193T229 225L179 238Q150 245 126 256T85 285T58 327T48 387Q48 457 92 500T232
544Q286 544 319 534T376 513V439Q356 448 319 457T237 467Q134 467 134 396Q134 364 152 348T210 320L260 307Q299 297 326 285T371 254T397 211T405 150Q405 71 354 31T216 -9ZM381 -193Q418 -188 441 -183T478 -171T497 -157T502 -140Q502 -131 499 -125T485
-115T458 -109T413 -107V0H479V-55Q530 -60 554 -79T579 -137Q579 -158 572 -176T543 -209T483 -233T381 -247V-193Z" />
<glyph unicode="&#x160;" glyph-name="Scaron" horiz-adv-x="535" d="M249 -14Q182 -14 132 0T45 34V114Q87 93 137 81T244 68Q322 68 357 101T393 191Q393 217 387 236T368 269T334 295T281 317L207 342Q171 354 143 370T95 410T65 465T54 539Q54 581 68 617T110
678T181 718T279 733Q343 733 383 721T453 694V614Q421 628 378 640T276 652Q215 652 181 625T147 547Q147 523 152 505T168 472T198 447T245 427L319 402Q358 389 389 373T443 333T477 277T489 199Q489 151 475 112T432 45T357 2T249 -14ZM309 777H231L111 917H186L271
849L354 917H429L309 777Z" />
<glyph unicode="&#x161;" glyph-name="scaron" horiz-adv-x="441" d="M216 -9Q165 -9 122 0T46 28V101Q63 94 79 88T113 78T154 71T204 68Q263 68 289 87T316 141Q316 174 297 193T229 225L179 238Q150 245 126 256T85 285T58 327T48 387Q48 457 92 500T232 544Q286
544 319 534T376 513V439Q356 448 319 457T237 467Q134 467 134 396Q134 364 152 348T210 320L260 307Q299 297 326 285T371 254T397 211T405 150Q405 71 354 31T216 -9ZM515 617H437L310 797H385L477 689L567 797H642L515 617Z" />
<glyph unicode="&#x162;" glyph-name="Tcommaaccent" horiz-adv-x="571" d="M239 641H29V721H542V641H332V0H239V641ZM233 -67H340L304 -232H228L233 -67Z" />
<glyph unicode="&#x163;" glyph-name="tcommaaccent" horiz-adv-x="392" d="M265 -6Q233 -6 206 1T160 24T129 64T117 125V458H27V534H117V660H208V534H355V458H208V138Q208 100 225 85T288 69Q305 69 327 72T365 80V19Q348 10 324 2T265 -6ZM445 -67H552L516
-232H440L445 -67Z" />
<glyph unicode="&#x164;" glyph-name="Tcaron" horiz-adv-x="571" d="M239 641H29V721H542V641H332V0H239V641ZM324 777H246L126 917H201L286 849L369 917H444L324 777Z" />
<glyph unicode="&#x165;" glyph-name="tcaron" horiz-adv-x="392" d="M265 -6Q233 -6 206 1T160 24T129 64T117 125V458H27V534H117V660H208V534H355V458H208V138Q208 100 225 85T288 69Q305 69 327 72T365 80V19Q348 10 324 2T265 -6ZM282 769H376L348 596H278L282 769Z" />
<glyph unicode="&#x166;" glyph-name="Tbar" horiz-adv-x="571" d="M496 387H75V461H496V387ZM239 641H29V721H542V641H332V0H239V641Z" />
<glyph unicode="&#x167;" glyph-name="tbar" horiz-adv-x="392" d="M117 361V458H27V534H117V660H208V534H355V458H208V361H355V285H208V138Q208 100 225 85T288 69Q305 69 327 72T365 80V19Q348 10 324 2T265 -6Q233 -6 206 1T160 24T129 64T117 125V285H27V361H117Z" />
<glyph unicode="&#x168;" glyph-name="Utilde" horiz-adv-x="692" d="M349 -14Q222 -14 154 49T85 246V721H178V252Q178 195 189 159T223 100T278 70T353 61Q395 61 426 69T479 99T510 158T521 253V721H607V249Q607 109 543 48T349 -14ZM176 781Q183 843 214 873T285
904Q305 904 323 898T357 883T387 869T414 862Q432 862 443 874T458 906H522Q516 844 485 814T413 783Q393 783 376 789T342 803T312 817T284 824Q266 824 255 813T240 781H176V781Z" />
<glyph unicode="&#x169;" glyph-name="utilde" horiz-adv-x="560" d="M232 -10Q154 -10 113 29T72 147V534H162V161Q162 112 182 91T259 69Q300 69 333 80T395 107V534H486V0H409L400 46H394Q361 23 321 7T232 -10ZM109 630Q116 690 147 719T218 748Q238 748 256
742T290 727T320 713T347 706Q365 706 377 718T393 750H455Q449 690 418 661T346 632Q326 632 309 638T275 652T245 666T217 673Q199 673 187 662T171 630H109V630Z" />
<glyph unicode="&#x16a;" glyph-name="Umacron" horiz-adv-x="692" d="M349 -14Q222 -14 154 49T85 246V721H178V252Q178 195 189 159T223 100T278 70T353 61Q395 61 426 69T479 99T510 158T521 253V721H607V249Q607 109 543 48T349 -14ZM212 877H486V801H212V877Z" />
<glyph unicode="&#x16b;" glyph-name="umacron" horiz-adv-x="560" d="M232 -10Q154 -10 113 29T72 147V534H162V161Q162 112 182 91T259 69Q300 69 333 80T395 107V534H486V0H409L400 46H394Q361 23 321 7T232 -10ZM144 725H418V649H144V725Z" />
<glyph unicode="&#x16c;" glyph-name="Ubreve" horiz-adv-x="692" d="M349 -14Q222 -14 154 49T85 246V721H178V252Q178 195 189 159T223 100T278 70T353 61Q395 61 426 69T479 99T510 158T521 253V721H607V249Q607 109 543 48T349 -14ZM349 776Q315 776 288 787T241
817T210 862T197 917H270Q275 888 294 870T349 852Q384 852 404 870T429 917H502Q500 888 489 863T458 818T411 787T349 776Z" />
<glyph unicode="&#x16d;" glyph-name="ubreve" horiz-adv-x="560" d="M232 -10Q154 -10 113 29T72 147V534H162V161Q162 112 182 91T259 69Q300 69 333 80T395 107V534H486V0H409L400 46H394Q361 23 321 7T232 -10ZM282 619Q253 619 226 628T179 657T145 707T131
778H201Q206 733 226 713T282 692Q355 692 364 778H434Q433 737 420 707T387 658T339 629T282 619Z" />
<glyph unicode="&#x16e;" glyph-name="Uring" horiz-adv-x="692" d="M349 1010Q325 1010 304 1018T268 1041T244 1076T235 1119Q235 1141 244 1160T268 1195T304 1218T349 1227Q373 1227 394 1219T430 1195T454 1161T463 1119Q463 1096 454 1076T430 1042T394
1019T349 1010ZM349 1056Q376 1056 392 1073T409 1119Q409 1147 393 1164T349 1181Q322 1181 306 1164T289 1119Q289 1090 305 1073T349 1056ZM349 -14Q222 -14 154 49T85 246V721H178V252Q178 195 189 159T223 100T278 70T353 61Q395 61 426 69T479 99T510 158T521
253V721H607V249Q607 109 543 48T349 -14Z" />
<glyph unicode="&#x16f;" glyph-name="uring" horiz-adv-x="560" d="M232 -10Q154 -10 113 29T72 147V534H162V161Q162 112 182 91T259 69Q300 69 333 80T395 107V534H486V0H409L400 46H394Q361 23 321 7T232 -10ZM282 612Q258 612 237 620T201 643T177 678T168
721Q168 743 177 762T201 797T237 820T282 829Q306 829 327 821T363 797T387 763T396 721Q396 698 387 678T363 644T327 621T282 612ZM282 658Q309 658 325 675T342 721Q342 749 326 766T282 783Q255 783 239 766T222 721Q222 692 238 675T282 658Z" />
<glyph unicode="&#x170;" glyph-name="Uhungarumlaut" horiz-adv-x="692" d="M349 -14Q222 -14 154 49T85 246V721H178V252Q178 195 189 159T223 100T278 70T353 61Q395 61 426 69T479 99T510 158T521 253V721H607V249Q607 109 543 48T349 -14ZM437 916H536L475
777H399L437 916ZM263 916H362L303 777H227L263 916Z" />
<glyph unicode="&#x171;" glyph-name="uhungarumlaut" horiz-adv-x="560" d="M232 -10Q154 -10 113 29T72 147V534H162V161Q162 112 182 91T259 69Q300 69 333 80T395 107V534H486V0H409L400 46H394Q361 23 321 7T232 -10ZM383 786H480L400 617H325L383 786ZM211
786H308L227 617H152L211 786Z" />
<glyph unicode="&#x172;" glyph-name="Uogonek" horiz-adv-x="692" d="M409 -213Q351 -213 321 -188T291 -123Q291 -85 311 -59T354 -14H349Q222 -14 154 49T85 246V721H178V252Q178 195 189 159T223 100T278 70T353 61Q395 61 426 69T479 99T510 158T521 253V721H607V249Q607
194 598 154T572 86T534 40T487 10Q468 1 449 -12T415 -40T391 -72T381 -108Q381 -144 427 -144Q441 -144 454 -141T476 -134V-198Q465 -203 449 -208T409 -213Z" />
<glyph unicode="&#x173;" glyph-name="uogonek" horiz-adv-x="560" d="M400 46H394Q361 23 321 7T232 -10Q154 -10 113 29T72 147V534H162V161Q162 112 182 91T259 69Q300 69 333 80T395 107V534H486V0Q456 -28 437 -54T417 -108Q417 -144 463 -144Q477 -144 490
-141T512 -134V-198Q501 -203 485 -208T445 -213Q387 -213 357 -188T327 -123Q327 -101 335 -83T355 -50T381 -23T410 -2L400 46Z" />
<glyph unicode="&#x174;" glyph-name="Wcircumflex" horiz-adv-x="894" d="M22 721H117L199 370Q208 330 217 284T234 195Q243 147 251 99H254Q263 145 273 193Q281 233 291 279T313 364L413 721H494L593 364Q604 326 614 280T632 193Q642 145 650 99H653Q660
147 669 195Q677 237 685 283T704 370L786 721H872L695 0H605L512 341Q501 380 490 426T471 515Q460 563 452 612H449Q440 563 429 515Q420 473 409 427T387 341L291 0H201L22 721ZM413 917H491L611 777H536L451 845L368 777H293L413 917Z" />
<glyph unicode="&#x175;" glyph-name="wcircumflex" horiz-adv-x="772" d="M26 534H123L179 307Q187 274 195 233T211 154Q219 111 226 68H230Q238 112 247 155Q255 192 264 233T283 308L349 534H432L498 308Q508 275 517 234T535 155Q544 112 552 68H556Q563
111 571 154Q578 191 586 232T603 307L660 534H746L597 0H506L433 247Q425 273 417 309T403 377Q396 415 389 454H385Q378 415 371 377Q365 345 357 309T341 247L267 0H175L26 534ZM352 797H430L557 617H482L390 725L300 617H225L352 797Z" />
<glyph unicode="&#x176;" glyph-name="Ycircumflex" horiz-adv-x="588" d="M248 279L16 721H116L227 503Q239 479 251 451T275 397Q287 368 298 339H301Q312 368 324 397Q335 422 347 450T372 503L481 721H572L341 279V0H248V279ZM263 917H341L461 777H386L301
845L218 777H143L263 917Z" />
<glyph unicode="&#x177;" glyph-name="ycircumflex" horiz-adv-x="511" d="M108 -207Q90 -207 71 -203T41 -191V-127Q51 -129 64 -130T92 -131Q128 -131 154 -113T197 -51L221 14L15 534H113L199 303Q211 270 222 232T243 162Q254 124 263 87H266Q275 125 286
163Q295 195 306 233T328 303L406 534H496L280 -63Q266 -102 250 -129T214 -173T168 -199T108 -207ZM224 797H302L429 617H354L262 725L172 617H97L224 797Z" />
<glyph unicode="&#x178;" glyph-name="Ydieresis" horiz-adv-x="588" d="M248 279L16 721H116L227 503Q239 479 251 451T275 397Q287 368 298 339H301Q312 368 324 397Q335 422 347 450T372 503L481 721H572L341 279V0H248V279ZM359 883H453V785H359V883ZM147
883H241V785H147V883Z" />
<glyph unicode="&#x179;" glyph-name="Zacute" horiz-adv-x="569" d="M38 72L322 494Q337 517 357 542T396 589Q417 614 440 638V641H65V721H533V650L264 254Q246 228 223 198T178 142Q153 112 129 83V80H519V0H38V72ZM339 777H251L329 916H436L339 777Z" />
<glyph unicode="&#x17a;" glyph-name="zacute" horiz-adv-x="478" d="M43 68L235 335Q249 354 266 375T300 414Q318 435 339 456V459H58V534H433V468L245 207Q231 187 213 165T177 123Q158 100 138 78V75H432V0H43V68ZM558 786H661L541 617H455L558 786Z" />
<glyph unicode="&#x17b;" glyph-name="Zdotaccent" horiz-adv-x="569" d="M38 72L322 494Q337 517 357 542T396 589Q417 614 440 638V641H65V721H533V650L264 254Q246 228 223 198T178 142Q153 112 129 83V80H519V0H38V72ZM251 888H351V790H251V888Z" />
<glyph unicode="&#x17c;" glyph-name="zdotaccent" horiz-adv-x="478" d="M43 68L235 335Q249 354 266 375T300 414Q318 435 339 456V459H58V534H433V468L245 207Q231 187 213 165T177 123Q158 100 138 78V75H432V0H43V68ZM454 737H554V640H454V737Z" />
<glyph unicode="&#x17d;" glyph-name="Zcaron" horiz-adv-x="569" d="M38 72L322 494Q337 517 357 542T396 589Q417 614 440 638V641H65V721H533V650L264 254Q246 228 223 198T178 142Q153 112 129 83V80H519V0H38V72ZM340 777H262L142 917H217L302 849L385 917H460L340
777Z" />
<glyph unicode="&#x17e;" glyph-name="zcaron" horiz-adv-x="478" d="M43 68L235 335Q249 354 266 375T300 414Q318 435 339 456V459H58V534H433V468L245 207Q231 187 213 165T177 123Q158 100 138 78V75H432V0H43V68ZM543 617H465L338 797H413L505 689L595 797H670L543
617Z" />
<glyph unicode="&#x192;" glyph-name="florin" horiz-adv-x="434" d="M45 433H135L156 554Q173 652 222 692T342 733Q376 733 395 729T428 718V651Q412 654 398 655T363 657Q315 657 286 632T246 543L227 433H358V354H213L146 -29Q138 -75 122 -106T85 -155T36
-182T-22 -190Q-54 -190 -74 -185T-107 -173V-106Q-96 -108 -81 -111T-49 -114Q-11 -114 17 -93T55 -20L121 354H45V433Z" />
<glyph unicode="&#x1fa;" glyph-name="Aringacute" horiz-adv-x="640" d="M275 721H366L616 0H519L450 203H178L109 0H21L275 721ZM205 283H422L371 434Q360 463 351 498T333 565Q324 601 316 636H313Q305 601 295 565Q287 534 277 499T256 434L205 283ZM321 1025Q297
1025 276 1033T240 1056T216 1091T207 1134Q207 1156 216 1175T240 1210T276 1233T321 1242Q345 1242 366 1234T402 1210T426 1176T435 1134Q435 1111 426 1091T402 1057T366 1034T321 1025ZM321 1071Q348 1071 364 1088T381 1134Q381 1162 365 1179T321 1196Q294
1196 278 1179T261 1134Q261 1105 277 1088T321 1071ZM359 1030H271L349 1169H456L359 1030Z" />
<glyph unicode="&#x1fb;" glyph-name="aringacute" horiz-adv-x="501" d="M204 -10Q168 -10 139 -1T87 27T53 74T41 141Q41 211 82 249T200 296L339 312V364Q339 394 332 414T310 445T270 460T210 465Q172 465 141 460T85 449V515Q120 529 159 536T246 544Q334
544 381 506T429 387V0H357L347 45H341Q322 22 289 6T204 -10ZM227 60Q261 60 291 70T339 97V244L223 232Q179 227 157 208T134 144Q134 101 159 81T227 60ZM505 859Q481 859 460 867T424 890T400 925T391 968Q391 990 400 1009T424 1044T460 1067T505 1076Q529
1076 550 1068T586 1044T610 1010T619 968Q619 945 610 925T586 891T550 868T505 859ZM505 905Q532 905 548 922T565 968Q565 996 549 1013T505 1030Q478 1030 462 1013T445 968Q445 939 461 922T505 905ZM543 867H455L533 1006H640L543 867Z" />
<glyph unicode="&#x1fc;" glyph-name="AEacute" horiz-adv-x="935" d="M394 721H869V641H539V412H793V332H539V80H872V0H446V208H211L103 0H10L394 721ZM253 288H446V510Q446 533 446 561T449 614Q450 643 452 672H448Q435 645 423 619Q412 596 400 571T376 524L253
288ZM631 777H543L621 916H728L631 777Z" />
<glyph unicode="&#x1fd;" glyph-name="aeacute" horiz-adv-x="826" d="M204 -10Q168 -10 139 -1T87 27T53 74T41 141Q41 211 83 248T200 295L339 313V364Q339 394 332 414T310 445T270 460T210 465Q172 465 141 460T85 449V515Q120 529 159 536T246 544Q375 544
403 452Q431 499 474 521T571 544Q680 544 732 483T784 302V244H432Q432 195 444 162T477 108T531 78T604 69Q657 69 694 79T768 109V42Q745 24 701 7T590 -10Q454 -10 391 73Q355 35 312 13T204 -10ZM362 122Q339 177 339 248L223 233Q178 228 156 208T134 144Q134
101 159 81T227 60Q266 60 299 76T362 122ZM567 470Q544 470 521 464T478 440T446 392T432 315H688Q688 399 658 434T567 470ZM482 786H585L465 617H379L482 786Z" />
<glyph unicode="&#x1fe;" glyph-name="Oslashacute" horiz-adv-x="708" d="M353 -12Q253 -12 182 32L120 -62H30L125 81Q88 125 69 187T49 330V391Q49 471 70 534T131 642T228 709T357 733Q457 733 528 688L577 762H666L584 638Q620 595 639 533T659 390V329Q659
249 638 186T578 79T481 12T353 -12ZM149 333Q149 277 155 234T177 159L483 620Q459 637 427 646T352 655Q298 655 260 637T197 585T161 507T149 408V333ZM356 66Q410 66 448 85T511 137T547 215T559 314V389Q559 443 553 485T531 559L226 98Q273 66 356 66ZM392
777H304L382 916H489L392 777Z" />
<glyph unicode="&#x1ff;" glyph-name="oslashacute" horiz-adv-x="564" d="M282 -10Q206 -10 150 21L101 -49H26L102 60Q42 126 42 241V289Q42 348 59 395T108 475T184 526T283 544Q361 544 415 511L459 574H534L463 472Q492 440 507 395T522 292V245Q522 186
505 139T456 58T380 8T282 -10ZM135 239Q135 204 139 179T152 133L371 448Q352 462 330 467T281 472Q211 472 173 426T135 298V239ZM284 60Q353 60 390 106T428 235V294Q428 358 411 397L192 83Q212 69 235 65T284 60ZM336 786H439L319 617H233L336 786Z" />
<glyph unicode="&#x218;" glyph-name="Scommaaccent" horiz-adv-x="535" d="M249 -14Q182 -14 132 0T45 34V114Q87 93 137 81T244 68Q322 68 357 101T393 191Q393 217 387 236T368 269T334 295T281 317L207 342Q171 354 143 370T95 410T65 465T54 539Q54 581 68
617T110 678T181 718T279 733Q343 733 383 721T453 694V614Q421 628 378 640T276 652Q215 652 181 625T147 547Q147 523 152 505T168 472T198 447T245 427L319 402Q358 389 389 373T443 333T477 277T489 199Q489 151 475 112T432 45T357 2T249 -14ZM212 -67H319L283
-232H207L212 -67Z" />
<glyph unicode="&#x219;" glyph-name="scommaaccent" horiz-adv-x="441" d="M216 -9Q165 -9 122 0T46 28V101Q63 94 79 88T113 78T154 71T204 68Q263 68 289 87T316 141Q316 174 297 193T229 225L179 238Q150 245 126 256T85 285T58 327T48 387Q48 457 92 500T232
544Q286 544 319 534T376 513V439Q356 448 319 457T237 467Q134 467 134 396Q134 364 152 348T210 320L260 307Q299 297 326 285T371 254T397 211T405 150Q405 71 354 31T216 -9ZM425 -67H532L496 -232H420L425 -67Z" />
<glyph unicode="&#x21a;" glyph-name="uni021A" horiz-adv-x="571" d="M239 641H29V721H542V641H332V0H239V641ZM233 -67H340L304 -232H228L233 -67Z" />
<glyph unicode="&#x21b;" glyph-name="uni021B" horiz-adv-x="392" d="M265 -6Q233 -6 206 1T160 24T129 64T117 125V458H27V534H117V660H208V534H355V458H208V138Q208 100 225 85T288 69Q305 69 327 72T365 80V19Q348 10 324 2T265 -6ZM445 -67H552L516 -232H440L445
-67Z" />
<glyph unicode="&#x237;" glyph-name="uni0237" horiz-adv-x="246" d="M22 -207Q-6 -207 -24 -203T-58 -189V-126Q-44 -128 -30 -130T-1 -132Q36 -132 57 -113T78 -52V534H168V-57Q168 -90 160 -117T134 -165T89 -196T22 -207Z" />
<glyph unicode="&#x2c6;" glyph-name="circumflex" horiz-adv-x="500" d="M211 797H289L416 617H341L249 725L159 617H84L211 797Z" />
<glyph unicode="&#x2c7;" glyph-name="caron" horiz-adv-x="500" d="M289 617H211L84 797H159L251 689L341 797H416L289 617Z" />
<glyph unicode="&#x2d8;" glyph-name="breve" horiz-adv-x="500" d="M249 619Q220 619 193 628T146 657T112 707T98 778H168Q173 733 193 713T249 692Q322 692 331 778H401Q400 737 387 707T354 658T306 629T249 619Z" />
<glyph unicode="&#x2d9;" glyph-name="dotaccent" horiz-adv-x="500" d="M200 737H300V640H200V737Z" />
<glyph unicode="&#x2da;" glyph-name="ring" horiz-adv-x="500" d="M250 612Q226 612 205 620T169 643T145 678T136 721Q136 743 145 762T169 797T205 820T250 829Q274 829 295 821T331 797T355 763T364 721Q364 698 355 678T331 644T295 621T250 612ZM250 658Q277
658 293 675T310 721Q310 749 294 766T250 783Q223 783 207 766T190 721Q190 692 206 675T250 658Z" />
<glyph unicode="&#x2db;" glyph-name="ogonek" horiz-adv-x="500" d="M282 -213Q224 -213 194 -188T164 -123Q164 -101 171 -82T191 -48T217 -21T246 0H323Q293 -28 274 -54T254 -108Q254 -144 300 -144Q314 -144 327 -141T349 -134V-198Q338 -203 322 -208T282 -213Z" />
<glyph unicode="&#x2dc;" glyph-name="tilde" horiz-adv-x="500" d="M77 630Q84 690 115 719T186 748Q206 748 224 742T258 727T288 713T315 706Q333 706 345 718T361 750H423Q417 690 386 661T314 632Q294 632 277 638T243 652T213 666T185 673Q167 673 155 662T139
630H77V630Z" />
<glyph unicode="&#x2dd;" glyph-name="hungarumlaut" horiz-adv-x="500" d="M345 786H442L362 617H287L345 786ZM173 786H270L189 617H114L173 786Z" />
</font>
</defs>
</svg>
