<?xml version="1.0" standalone="no"?> <!DOCTYPE svg PUBLIC "-//W3C//DTD SVG 1.0//EN" "http://www.w3.org/TR/2001/REC-SVG-20010904/DTD/svg10.dtd" > <svg xmlns="http://www.w3.org/2000/svg" width="100%" height="100%">
<defs >
<font horiz-adv-x="560" ><font-face
    font-family=""
    units-per-em="1000"
    panose-1="0 0 0 0 0 0 0 0 0 0"
    ascent="797"
    descent="-203"
    alphabetic="0" />
<missing-glyph horiz-adv-x="504" />
<glyph unicode=" " glyph-name="space" horiz-adv-x="227" />
<glyph unicode="!" glyph-name="exclam" horiz-adv-x="309" d="M69 721H240L216 254H93L69 721ZM79 146H232V0H79V146Z" />
<glyph unicode="&quot;" glyph-name="quotedbl" horiz-adv-x="469" d="M269 721H416L401 470H284L269 721ZM53 721H200L185 470H67L53 721Z" />
<glyph unicode="#" glyph-name="numbersign" horiz-adv-x="588" d="M66 550H168L193 721H292L267 550H377L402 721H502L477 550H552V426H459L441 302H523V178H423L397 0H297L323 178H213L187 0H88L113 178H36V302H132L150 426H66V550ZM231 302H342L359 426H249L231 302Z" />
<glyph unicode="$" glyph-name="dollar" d="M165 -7Q118 -1 86 10T35 32V154Q63 142 101 131T189 114L226 304L208 309Q164 320 132 335T78 375T46 434T35 518Q35 566 50 606T97 674T176 717T288 733H309L327 826H409L389 725Q425 719 447 711T484 696V571Q465
579 435 588T365 602L331 425L338 423Q385 412 420 397T478 359T513 301T525 218Q525 106 457 47T258 -13H246L219 -153H137L165 -7ZM374 200Q374 234 361 252T303 284L270 111Q329 114 351 137T374 200ZM179 529Q179 512 182 499T193 476T215 458T253 444L284
607Q228 606 204 586T179 529Z" />
<glyph unicode="%" glyph-name="percent" horiz-adv-x="979" d="M757 80Q787 80 801 100T816 167V221Q816 268 801 289T757 310Q728 310 714 290T699 223V168Q699 122 713 101T757 80ZM757 400Q796 400 829 388T886 353T924 296T938 216V178Q938 133 925 98T887
39T830 3T757 -10Q718 -10 685 1T628 36T591 94T578 173V211Q578 256 591 291T628 351T685 387T757 400ZM219 323Q180 323 147 334T91 369T54 426T40 506V543Q40 589 53 624T91 684T147 720T219 733Q258 733 291 722T349 687T387 629T401 549V511Q401 466 388 431T350
372T293 336T219 323ZM666 742H776L302 -42H192L666 742ZM219 412Q250 412 264 432T279 500V553Q279 601 264 622T219 643Q191 643 177 623T162 556V501Q162 454 176 433T219 412Z" />
<glyph unicode="&amp;" glyph-name="ampersand" horiz-adv-x="726" d="M307 -12Q177 -12 106 42T35 202Q35 242 47 273T80 329T130 372T193 405Q165 443 154 477T142 547Q142 592 158 626T204 685T273 721T362 733Q410 733 449 721T516 687T559 632T574 559Q574
522 562 495T529 445T476 405T405 371L524 228Q549 285 557 362H686Q679 296 657 240T599 139L715 0H529L493 43Q407 -12 307 -12ZM327 103Q383 103 424 124L253 330Q228 312 212 286T196 221Q196 168 227 136T327 103ZM291 555Q291 528 302 505T338 453L350 438Q388
461 410 488T433 553Q433 588 413 607T363 627Q336 627 314 610T291 555Z" />
<glyph unicode="&apos;" glyph-name="quotesingle" horiz-adv-x="256" d="M55 721H202L187 470H69L55 721Z" />
<glyph unicode="(" glyph-name="parenleft" horiz-adv-x="387" d="M244 -125Q208 -92 173 -50T111 44T67 159T50 296V348Q50 422 66 485T110 600T173 694T244 769H371Q337 728 307 683T254 586T218 478T204 357V295Q204 230 217 172T253 62T306 -37T371 -125H244V-125Z" />
<glyph unicode=")" glyph-name="parenright" horiz-adv-x="387" d="M143 -125H15Q49 -84 80 -39T133 59T169 169T183 292V354Q183 418 170 475T134 584T80 682T15 769H143Q179 736 214 694T276 600T320 485T337 348V296Q337 222 321 160T277 45T214 -50T143 -125Z" />
<glyph unicode="*" glyph-name="asterisk" horiz-adv-x="477" d="M218 487L94 368L38 473L201 520L38 567L94 672L218 553L178 721H298L258 553L383 672L438 567L275 520L438 473L383 368L258 487L298 319H178L218 487Z" />
<glyph unicode="+" glyph-name="plus" horiz-adv-x="581" d="M225 282H52V405H225V590H355V405H529V282H355V97H225V282Z" />
<glyph unicode="," glyph-name="comma" horiz-adv-x="280" d="M68 147H226L178 -115H56L68 147Z" />
<glyph unicode="-" glyph-name="hyphen" horiz-adv-x="391" d="M55 365H336V240H55V365Z" />
<glyph unicode="." glyph-name="period" horiz-adv-x="280" d="M63 147H217V0H63V147Z" />
<glyph unicode="/" glyph-name="slash" horiz-adv-x="416" d="M266 769H397L133 -125H2L266 769Z" />
<glyph unicode="0" glyph-name="zero" horiz-adv-x="681" d="M340 -13Q276 -13 222 6T129 64T68 163T46 308V405Q46 492 69 554T133 656T227 714T341 733Q404 733 457 714T550 656T611 557T634 412V314Q634 227 612 166T550 64T456 6T340 -13ZM341 110Q404 110
434 152T465 297V415Q465 519 434 564T341 609Q279 609 248 566T217 422V304Q217 204 247 157T341 110Z" />
<glyph unicode="1" glyph-name="one" horiz-adv-x="435" d="M169 548L21 529V632L241 723H332V0H169V548Z" />
<glyph unicode="2" glyph-name="two" horiz-adv-x="551" d="M34 116L181 262Q215 296 241 325T286 381T313 434T323 490V501Q323 556 291 576T202 597Q153 597 114 586T45 562V686Q81 706 130 719T252 733Q306 733 350 721T427 683T476 618T494 525V510Q494 463
482 425T448 352T392 285T315 216L213 132V129H506V0H34V116Z" />
<glyph unicode="3" glyph-name="three" horiz-adv-x="551" d="M237 -12Q164 -12 114 1T31 32V154Q66 141 107 132T192 123Q269 123 303 143T338 217Q338 270 310 289T222 308H139V430H214Q271 430 297 450T323 518Q323 567 294 583T205 599Q159 599 123 592T56
575V696Q93 713 144 723T254 733Q306 733 348 722T421 687T467 630T483 550Q483 484 449 442T335 382V378Q380 371 412 359T465 325T496 275T506 204Q506 101 436 45T237 -12Z" />
<glyph unicode="4" glyph-name="four" horiz-adv-x="636" d="M343 168H25V283L354 721H500V290H609V168H500V0H343V168ZM147 282Q164 283 182 285Q197 286 214 287T247 288H347V439Q347 458 347 480T350 522Q352 544 354 566H350Q340 545 329 524Q319 506 307
485T281 446L241 391Q228 374 212 356T182 321Q165 303 147 285V282Z" />
<glyph unicode="5" glyph-name="five" horiz-adv-x="549" d="M232 -12Q160 -12 111 1T29 32V153Q63 139 101 131T187 122Q260 122 297 146T334 230Q334 290 299 313T187 337Q147 337 117 332T58 320L81 721H477V595H196L185 430Q202 439 225 446T287 454Q336 454
376 441T444 401T488 331T504 231Q504 117 434 53T232 -12Z" />
<glyph unicode="6" glyph-name="six" horiz-adv-x="637" d="M333 -13Q195 -13 121 64T46 291V382Q46 479 72 546T143 654T249 714T380 733Q440 733 482 726T548 704V584Q527 590 492 595T418 601Q369 601 332 593T268 563T228 499T213 392Q239 421 280 439T375
457Q476 457 535 405T595 237Q595 182 579 136T531 57T450 6T333 -13ZM328 103Q380 103 404 133T429 227Q429 266 422 289T400 325T367 342T322 346Q287 346 261 336T215 313V270Q215 187 240 145T328 103Z" />
<glyph unicode="7" glyph-name="seven" horiz-adv-x="541" d="M271 413Q285 442 303 473T337 530Q355 560 375 588V592H28V721H513V602L256 0H79L271 413Z" />
<glyph unicode="8" glyph-name="eight" horiz-adv-x="642" d="M319 -13Q181 -13 112 36T43 180Q43 247 84 288T196 354V359Q130 385 96 424T62 533Q62 581 80 618T132 680T214 719T321 733Q441 733 507 686T573 545Q573 486 539 447T436 382V377Q474 365 504 351T555
316T587 267T599 199Q599 94 525 41T319 -13ZM316 101Q373 101 404 123T436 190Q436 215 428 232T401 263T353 288T280 311Q242 293 218 266T194 193Q194 145 226 123T316 101ZM347 429Q382 449 402 472T423 536Q423 574 399 596T322 619Q274 619 248 599T221 540Q221
498 250 475T347 429Z" />
<glyph unicode="9" glyph-name="nine" horiz-adv-x="637" d="M253 -13Q193 -13 149 -5T78 18V138Q100 131 138 125T214 119Q268 119 307 126T373 156T411 219T425 326Q398 297 357 279T260 261Q210 261 170 274T101 314T57 383T41 482Q41 537 57 583T106 662T189
714T306 733Q441 733 516 658T591 432V338Q591 242 567 175T498 66T391 6T253 -13ZM314 372Q349 372 376 382T423 405V453Q423 536 396 577T308 618Q255 618 231 587T207 492Q207 453 214 430T235 393T269 376T314 372Z" />
<glyph unicode=":" glyph-name="colon" horiz-adv-x="288" d="M67 147H221V0H67V147ZM67 453H221V306H67V453Z" />
<glyph unicode=";" glyph-name="semicolon" horiz-adv-x="288" d="M323 147H481L433 -115H311L323 147ZM68 452H222V305H68V452Z" />
<glyph unicode="&lt;" glyph-name="less" horiz-adv-x="556" d="M64 273V395L485 599V463L205 334L485 206V70L64 273Z" />
<glyph unicode="=" glyph-name="equal" horiz-adv-x="576" d="M61 491H514V370H61V491ZM61 249H514V129H61V249Z" />
<glyph unicode="&gt;" glyph-name="greater" horiz-adv-x="556" d="M71 205L351 335L71 463V599L492 395V274L71 70V205Z" />
<glyph unicode="?" glyph-name="question" horiz-adv-x="457" d="M113 293Q113 320 118 339T133 375T160 406T198 440Q231 467 246 486T262 537Q262 575 239 591T161 608Q118 608 88 601T30 586V697Q65 714 107 723T208 733Q254 733 293 724T361 693T406 638T423
556Q423 522 417 498T398 453T366 415T320 376Q299 359 285 348T262 325T250 303T246 275V254H113V293ZM103 146H256V0H103V146Z" />
<glyph unicode="@" glyph-name="at" horiz-adv-x="940" d="M462 -165Q368 -165 291 -140T160 -66T75 57T45 229Q45 326 77 412T169 564T315 668T512 707Q596 707 667 681T789 608T868 494T897 345Q897 269 877 215T823 125T744 74T648 57Q592 57 563 74T525 118H521Q502
95 473 77T403 59Q374 59 349 69T305 98T276 147T265 216Q265 274 279 322T318 404T381 456T463 475Q495 475 520 466T560 443H565L570 467H689L640 191Q635 168 642 156T672 144Q697 144 719 155T759 190T787 250T798 338Q798 402 780 453T726 541T635 598T506
618Q423 618 356 589T242 509T170 386T144 231Q144 153 166 95T229 -3T329 -61T462 -80Q543 -80 602 -66T706 -37V-113Q659 -137 601 -151T462 -165ZM445 149Q466 149 482 160T510 183L541 367Q533 376 518 382T483 388Q461 388 445 376T417 341T400 286T394 216Q394
181 407 165T445 149Z" />
<glyph unicode="A" glyph-name="A" horiz-adv-x="680" d="M255 721H426L666 0H498L451 149H203L158 0H13L255 721ZM237 259H417L382 373Q371 409 362 451T345 532Q337 575 330 619H325Q318 576 309 532Q301 494 292 451T272 373L237 259Z" />
<glyph unicode="B" glyph-name="B" horiz-adv-x="641" d="M70 721H347Q467 721 520 675T574 538Q574 479 545 439T437 379V375Q520 364 561 325T603 205Q603 161 590 124T547 59T473 16T362 0H70V721ZM336 118Q389 118 413 142T438 219Q438 271 413 293T331 316H229V118H336ZM320
426Q367 426 392 444T418 516Q418 566 396 584T324 602H229V426H320Z" />
<glyph unicode="C" glyph-name="C" horiz-adv-x="585" d="M359 -12Q285 -12 226 7T126 68T63 172T41 324V395Q41 489 66 554T137 658T242 715T371 733Q431 733 473 725T546 699V570Q511 583 477 591T395 599Q351 599 318 590T261 558T225 500T213 411V331Q213
278 222 239T252 174T307 135T393 122Q449 122 486 133T552 158V29Q517 10 471 -1T359 -12Z" />
<glyph unicode="D" glyph-name="D" horiz-adv-x="695" d="M70 721H319Q400 721 462 704T567 648T632 549T654 400V334Q654 161 569 81T321 0H70V721ZM318 129Q361 129 392 138T444 169T474 229T484 323V402Q484 460 473 497T440 555T386 584T312 592H232V129H318Z" />
<glyph unicode="E" glyph-name="E" horiz-adv-x="584" d="M70 721H527V590H229V432H462V306H229V131H536V0H70V721Z" />
<glyph unicode="F" glyph-name="F" horiz-adv-x="556" d="M70 721H522V590H232V410H459V283H232V0H70V721Z" />
<glyph unicode="G" glyph-name="G" horiz-adv-x="674" d="M380 -11Q300 -11 238 6T131 63T64 167T41 324V393Q41 492 68 557T143 662T252 717T383 733Q455 733 505 722T586 695V563Q556 574 512 585T399 596Q342 596 306 582T248 543T219 481T211 401V322Q211
274 217 235T241 168T291 125T377 110Q402 110 426 114T465 124V263H356V384H618V34Q578 14 515 2T380 -11Z" />
<glyph unicode="H" glyph-name="H" horiz-adv-x="717" d="M70 721H232V437H486V721H647V0H486V305H232V0H70V721Z" />
<glyph unicode="I" glyph-name="I" horiz-adv-x="302" d="M70 721H232V0H70V721Z" />
<glyph unicode="J" glyph-name="J" horiz-adv-x="461" d="M181 -8Q127 -8 93 1T32 24V143Q52 136 77 131T131 126Q181 126 208 148T235 222V721H397V201Q397 156 384 118T344 51T277 8T181 -8Z" />
<glyph unicode="K" glyph-name="K" horiz-adv-x="662" d="M248 364L467 721H634L414 378L649 0H473L248 364ZM70 721H233V0H70V721Z" />
<glyph unicode="L" glyph-name="L" horiz-adv-x="539" d="M70 721H233V131H509V0H70V721Z" />
<glyph unicode="M" glyph-name="M" horiz-adv-x="872" d="M70 721H299L370 470Q381 430 392 374T414 266Q425 205 435 141H438Q448 204 459 265Q468 317 479 373T502 470L573 721H802V0H647V303Q647 345 648 404T651 521Q653 586 656 656H653Q640 588 627 525Q621
498 615 469T603 413T591 360T580 315L491 0H358L270 316Q264 335 258 360T246 413T235 469T223 525Q210 588 197 656H193Q195 587 198 521Q200 464 202 404T204 302V0H70V721Z" />
<glyph unicode="N" glyph-name="N" horiz-adv-x="713" d="M70 721H249L389 477Q408 443 428 399T467 314Q487 266 508 218H511Q507 271 504 321Q502 364 500 411T498 494V721H643V0H486L324 285Q305 317 284 363T246 451Q225 500 205 551H201Q204 496 208 442Q210
396 212 346T215 260V0H70V721Z" />
<glyph unicode="O" glyph-name="O" horiz-adv-x="718" d="M358 -12Q289 -12 231 7T131 67T65 171T41 324V395Q41 484 66 548T134 653T235 713T362 733Q431 733 489 714T588 655T653 550T677 397V326Q677 237 653 174T585 69T484 8T358 -12ZM360 111Q435 111 471
161T507 314V397Q507 509 474 559T358 609Q283 609 248 560T212 410V326Q212 212 246 162T360 111Z" />
<glyph unicode="P" glyph-name="P" horiz-adv-x="621" d="M70 721H341Q473 721 533 662T594 492Q594 371 531 311T346 251H232V0H70V721ZM320 370Q381 370 404 396T427 483Q427 517 422 539T404 574T371 592T323 598H232V370H320Z" />
<glyph unicode="Q" glyph-name="Q" horiz-adv-x="718" d="M290 -14Q243 0 199 21T119 79T63 175T41 323V394Q41 483 66 547T134 652T235 713T362 733Q431 733 489 714T588 654T653 550T677 397V326Q677 261 663 213T624 131T562 76T483 44V40L737 -4L710 -138L290
-14ZM360 108Q435 108 471 160T507 313V396Q507 509 474 559T358 609Q283 609 248 559T212 409V326Q212 211 246 160T360 108Z" />
<glyph unicode="R" glyph-name="R" horiz-adv-x="645" d="M70 721H339Q465 721 526 668T588 502Q588 425 558 383T464 318V314L634 0H463L320 271H232V0H70V721ZM321 384Q379 384 402 410T426 494Q426 551 403 575T319 600H230V384H321Z" />
<glyph unicode="S" glyph-name="S" horiz-adv-x="548" d="M252 -13Q181 -13 126 -1T36 32V163Q80 145 128 133T236 120Q298 120 325 141T353 202Q353 220 349 233T335 256T308 273T264 288L201 306Q160 317 129 333T78 374T47 434T36 518Q36 566 50 606T95 674T171
717T280 733Q355 733 398 722T471 696V565Q437 579 393 589T291 600Q190 600 190 528Q190 496 206 479T269 448L334 429Q377 417 410 402T466 362T501 303T513 218Q513 106 448 47T252 -13Z" />
<glyph unicode="T" glyph-name="T" horiz-adv-x="587" d="M212 590H25V721H562V590H373V0H212V590Z" />
<glyph unicode="U" glyph-name="U" horiz-adv-x="695" d="M352 -13Q209 -13 137 49T65 241V721H228V248Q228 171 260 143T357 114Q390 114 413 120T453 142T476 184T484 249V721H630V243Q630 112 563 50T352 -13Z" />
<glyph unicode="V" glyph-name="V" horiz-adv-x="664" d="M15 721H181L269 433Q280 395 292 343T315 243Q327 187 339 128H344Q355 187 366 243Q376 291 387 343T410 433L496 721H649L414 0H249L15 721Z" />
<glyph unicode="W" glyph-name="W" horiz-adv-x="930" d="M15 721H177L235 452Q245 406 253 346T267 232Q274 169 280 103H283Q290 168 299 230Q307 284 316 343T336 449L401 721H545L610 449Q621 403 629 344T646 230Q654 168 662 103H665Q671 169 678 232Q684
286 692 346T711 452L770 721H913L745 0H581L511 299Q502 337 495 387T481 486Q474 541 468 599H465Q459 541 452 486Q446 438 438 388T421 299L347 0H184L15 721Z" />
<glyph unicode="X" glyph-name="X" horiz-adv-x="672" d="M231 370L33 721H208L268 608Q282 581 295 550T320 492Q332 460 344 429H348Q359 460 370 492Q380 519 392 550T419 608L476 721H639L445 373L653 0H478L413 122Q399 148 385 180T359 240Q346 273 333
305H329Q316 272 303 239Q291 211 277 180T248 122L181 0H18L231 370Z" />
<glyph unicode="Y" glyph-name="Y" horiz-adv-x="624" d="M231 281L9 721H178L239 590Q253 559 267 522T293 453Q306 415 319 376H322Q333 415 346 453Q357 485 371 522T399 590L460 721H614L393 281V0H231V281Z" />
<glyph unicode="Z" glyph-name="Z" horiz-adv-x="582" d="M35 121L259 446Q275 469 295 494T335 541Q357 566 380 590V593H56V721H544V601L321 276Q304 253 284 227T244 180Q222 154 200 131V128H540V0H35V121Z" />
<glyph unicode="[" glyph-name="bracketleft" horiz-adv-x="400" d="M73 769H364V653H223V-9H364V-125H73V769Z" />
<glyph unicode="\" glyph-name="backslash" horiz-adv-x="416" d="M19 769H151L415 -125H284L19 769Z" />
<glyph unicode="]" glyph-name="bracketright" horiz-adv-x="400" d="M327 -125H37V-9H177V653H37V769H327V-125Z" />
<glyph unicode="^" glyph-name="asciicircum" horiz-adv-x="527" d="M199 721H330L495 425H372L263 590L154 425H32L199 721Z" />
<glyph unicode="_" glyph-name="underscore" horiz-adv-x="359" d="M-6 -55H365V-153H-6V-55Z" />
<glyph unicode="`" glyph-name="grave" horiz-adv-x="494" d="M79 791H237L314 621H188L79 791Z" />
<glyph unicode="a" glyph-name="a" horiz-adv-x="521" d="M192 -10Q119 -10 74 29T29 147Q29 188 41 217T77 265T134 296T210 312L317 327V360Q317 404 293 419T207 435Q168 435 133 430T72 419V527Q150 558 265 558Q363 558 414 518T466 385V0H343L331 53H325Q308
26 275 8T192 -10ZM242 88Q265 88 285 95T317 114V243L241 235Q206 231 190 213T174 158Q174 120 193 104T242 88Z" />
<glyph unicode="b" glyph-name="b" horiz-adv-x="591" d="M278 -11Q215 -11 157 0T57 28V769H206V493H211Q239 522 274 540T365 558Q399 558 433 547T494 508T539 433T556 314V265Q556 118 486 54T278 -11ZM287 93Q312 93 333 100T369 124T393 170T402 244V299Q402
342 396 368T376 410T342 430T293 436Q267 436 244 429T206 414V110Q219 104 238 99T287 93Z" />
<glyph unicode="c" glyph-name="c" horiz-adv-x="471" d="M287 -10Q164 -10 98 52T32 244V296Q32 363 50 412T103 494T186 542T294 558Q348 558 381 550T439 528V411Q425 417 412 422T385 430T354 435T315 437Q255 437 220 408T185 309V252Q185 174 217 142T320
110Q362 110 392 120T443 139V29Q420 13 382 2T287 -10Z" />
<glyph unicode="d" glyph-name="d" horiz-adv-x="591" d="M241 -10Q200 -10 163 3T98 45T52 123T35 241V291Q35 364 52 415T99 498T171 544T264 558Q310 558 339 545T384 516V769H533V0H404L393 59H388Q362 27 326 9T241 -10ZM296 106Q326 106 348 116T384 137V423Q371
434 349 440T298 447Q272 447 252 441T217 419T196 374T188 303V247Q188 204 195 177T216 134T250 112T296 106Z" />
<glyph unicode="e" glyph-name="e" horiz-adv-x="547" d="M302 -10Q165 -10 99 54T32 248V300Q32 363 50 411T100 492T179 541T281 558Q403 558 459 495T516 300V229H184Q186 192 196 169T225 132T272 113T338 108Q388 108 426 117T497 139V36Q468 20 421 5T302
-10ZM280 452Q261 452 244 447T213 428T191 390T181 326H371Q371 363 365 387T347 426T318 446T280 452Z" />
<glyph unicode="f" glyph-name="f" horiz-adv-x="391" d="M100 434H23V548H100V607Q100 651 113 683T151 737T208 768T281 779Q320 779 348 774T391 760V660Q381 662 364 664T328 666Q289 666 270 650T250 591V548H364V434H250V0H100V434Z" />
<glyph unicode="g" glyph-name="g" horiz-adv-x="592" d="M268 -216Q206 -216 154 -205T67 -176V-68Q79 -73 97 -78T138 -87T184 -94T232 -97Q312 -97 348 -74T385 9V67H380Q355 42 320 30T237 17Q198 17 162 28T97 68T52 142T35 256V297Q35 370 52 420T99 500T171
544T262 558Q312 558 344 544T397 516H402L411 548H535V-5Q535 -64 517 -104T465 -169T381 -205T268 -216ZM295 128Q328 128 349 137T385 156V419Q372 429 348 436T298 444Q272 444 252 439T217 418T196 377T189 310V264Q189 221 196 195T217 153T250 133T295 128Z"
/>
<glyph unicode="h" glyph-name="h" horiz-adv-x="583" d="M57 769H206V488H211Q241 520 283 539T375 558Q450 558 489 523T529 408V0H379V366Q379 403 363 418T303 433Q278 433 252 427T206 410V0H57V769Z" />
<glyph unicode="i" glyph-name="i" horiz-adv-x="265" d="M58 548H207V0H58V548ZM57 763H208V631H57V763Z" />
<glyph unicode="j" glyph-name="j" horiz-adv-x="265" d="M33 -206Q-28 -206 -60 -187V-87Q-49 -89 -39 -90T-15 -92Q20 -92 39 -76T58 -22V548H207V-35Q207 -73 198 -104T167 -158T113 -193T33 -206ZM57 763H208V631H57V763Z" />
<glyph unicode="k" glyph-name="k" horiz-adv-x="547" d="M57 769H206V0H57V769ZM218 286L368 548H525L365 295L536 0H374L218 286Z" />
<glyph unicode="l" glyph-name="l" horiz-adv-x="310" d="M196 -8Q128 -8 93 23T57 130V769H206V154Q206 127 217 116T255 105Q266 105 276 106T294 110V13Q281 5 256 -1T196 -8Z" />
<glyph unicode="m" glyph-name="m" horiz-adv-x="870" d="M58 548H203V485H208Q240 518 280 538T368 558Q414 558 445 541T493 482H498Q537 518 581 538T672 558Q741 558 778 524T815 409V0H665V367Q665 403 651 418T599 434Q555 434 512 414V0H361V367Q361 403
347 418T295 434Q272 434 250 428T208 414V0H58V548Z" />
<glyph unicode="n" glyph-name="n" horiz-adv-x="584" d="M58 548H202V484H207Q240 519 283 538T376 558Q450 558 489 523T529 408V0H380V366Q380 403 364 418T304 433Q279 433 253 427T207 410V0H58V548Z" />
<glyph unicode="o" glyph-name="o" horiz-adv-x="578" d="M289 -10Q164 -10 99 55T33 246V296Q33 361 52 410T106 492T187 541T290 558Q415 558 480 493T545 302V252Q545 186 526 137T473 56T392 7T289 -10ZM291 100Q315 100 334 107T366 131T385 175T392 242V299Q392
346 385 375T363 420T330 441T289 447Q239 447 213 415T186 304V247Q186 201 194 172T216 127T249 106T291 100Z" />
<glyph unicode="p" glyph-name="p" horiz-adv-x="592" d="M57 548H202V486H207Q232 519 270 538T361 558Q401 558 436 546T499 506T541 430T557 311V262Q557 187 541 135T496 51T425 4T331 -10Q285 -10 255 3T207 30V-203H57V548ZM293 97Q320 97 340 103T375 126T396
171T403 242V298Q403 340 397 367T377 409T344 430T298 436Q267 436 244 428T207 409V122Q220 112 243 105T293 97Z" />
<glyph unicode="q" glyph-name="q" horiz-adv-x="590" d="M384 46H379Q356 20 325 5T244 -10Q206 -10 169 2T102 44T54 120T35 238V287Q35 364 55 416T113 499T201 544T313 558Q388 558 442 547T533 518V-203H384V46ZM295 109Q327 109 348 118T384 138V434Q354
448 302 448Q275 448 254 442T219 419T197 374T189 303V247Q189 205 196 178T217 136T251 115T295 109Z" />
<glyph unicode="r" glyph-name="r" horiz-adv-x="398" d="M56 548H200V464H206Q231 508 268 531T346 555Q357 555 365 554T378 550V410Q369 412 357 413T335 414Q300 414 265 407T206 386V0H56V548Z" />
<glyph unicode="s" glyph-name="s" horiz-adv-x="462" d="M214 -10Q98 -10 34 24V138Q67 125 102 116T192 106Q221 106 239 109T269 120T284 136T288 158Q288 180 276 191T224 210L175 219Q110 232 72 270T33 383Q33 466 83 512T239 558Q297 558 334 551T401 532V420Q376
429 340 436T257 443Q208 443 190 430T171 394Q171 373 184 363T233 345L281 336Q363 320 397 282T432 169Q432 81 378 36T214 -10Z" />
<glyph unicode="t" glyph-name="t" horiz-adv-x="406" d="M258 -8Q220 -8 191 -1T141 23T110 68T99 140V434H21V548H99V678H248V548H370V434H248V163Q248 131 263 120T313 109Q327 109 344 111T375 118V17Q358 8 328 0T258 -8Z" />
<glyph unicode="u" glyph-name="u" horiz-adv-x="577" d="M210 -11Q135 -11 95 28T55 148V548H204V183Q204 145 218 128T274 110Q301 110 325 119T369 138V548H519V0H389L378 64H373Q338 29 299 9T210 -11Z" />
<glyph unicode="v" glyph-name="v" horiz-adv-x="544" d="M7 548H162L220 355Q231 318 240 274T258 192Q267 147 275 103H279Q286 148 295 192Q303 230 312 273T333 353L392 548H536L349 0H193L7 548Z" />
<glyph unicode="w" glyph-name="w" horiz-adv-x="786" d="M14 548H165L204 378Q211 346 218 299T231 207Q237 155 243 100H247Q253 154 260 206Q266 251 274 298T292 378L337 548H466L512 378Q520 346 528 299T544 207Q552 155 558 100H562Q568 154 574 206Q579
251 586 298T601 378L640 548H770L628 0H485L432 195Q424 225 417 267T405 348Q399 393 395 440H391Q386 393 381 348Q376 310 369 268T354 195L301 0H157L14 548Z" />
<glyph unicode="x" glyph-name="x" horiz-adv-x="544" d="M174 283L21 548H186L228 465Q239 442 248 419T265 375Q273 352 279 331H283Q289 352 296 375Q302 395 310 418T330 465L367 548H519L371 286L532 0H367L317 99Q307 118 298 140T282 183Q274 206 267 228H263Q256
206 248 183Q241 163 232 141T213 99L162 0H10L174 283Z" />
<glyph unicode="y" glyph-name="y" horiz-adv-x="536" d="M123 -206Q98 -206 70 -202T28 -189V-85Q40 -87 55 -89T84 -91Q126 -91 148 -75T183 -26L197 12L4 548H160L216 376Q228 340 238 294T256 206Q265 158 272 108H275Q282 158 292 206Q300 248 310 294T332
376L385 548H529L327 -48Q313 -88 296 -118T254 -167T198 -196T123 -206Z" />
<glyph unicode="z" glyph-name="z" horiz-adv-x="484" d="M29 110L190 322Q206 343 224 362T257 398Q275 416 292 432V435H39V548H453V446L288 226Q272 205 254 186T220 150Q202 132 183 115V112H451V0H29V110Z" />
<glyph unicode="{" glyph-name="braceleft" horiz-adv-x="445" d="M409 -127Q328 -126 276 -112T193 -73T150 -12T138 67V171Q138 218 113 236T28 258V385Q87 388 112 406T138 472V576Q138 619 150 654T192 715T275 755T409 771V656Q376 654 353 649T315 633T294
605T287 559V457Q287 433 282 412T262 373T222 344T156 324V320Q196 314 221 302T261 272T281 233T287 186V85Q287 57 293 40T314 11T352 -5T409 -12V-127V-127Z" />
<glyph unicode="|" glyph-name="bar" horiz-adv-x="310" d="M94 769H215V-125H94V769Z" />
<glyph unicode="}" glyph-name="braceright" horiz-adv-x="445" d="M36 -127V-12Q69 -10 92 -5T130 11T151 39T158 85V186Q158 211 163 232T183 271T223 301T289 320V324Q249 331 224 343T184 373T164 411T158 457V559Q158 587 152 604T131 633T93 649T36 656V771Q117
769 169 755T253 716T296 655T308 576V472Q308 425 333 407T417 385V258Q359 255 334 237T308 171V67Q308 23 296 -12T253 -72T170 -112T36 -127Z" />
<glyph unicode="~" glyph-name="asciitilde" horiz-adv-x="472" d="M30 227Q34 273 46 305T76 356T116 384T163 393Q184 393 203 387T240 374T271 360T296 354Q313 354 322 365T336 396H441Q438 350 426 318T395 267T355 239T308 230Q287 230 268 236T231 249T200
262T175 268Q158 268 149 257T136 227H30V227Z" />
<glyph unicode="&#xa0;" glyph-name="uni00A0" horiz-adv-x="227" />
<glyph unicode="&#xa1;" glyph-name="exclamdown" horiz-adv-x="309" d="M240 -125H69L93 342H216L240 -125ZM230 450H77V596H230V450Z" />
<glyph unicode="&#xa2;" glyph-name="cent" horiz-adv-x="482" d="M395 549Q413 544 426 539T451 528V414Q434 421 417 427T377 436L323 108Q373 109 404 118T455 136V29Q433 14 397 3T304 -9L281 -153H196L220 -2Q133 13 83 72T32 244V296Q32 363 51 412T105
494T190 542T301 558H311L326 652H412L395 549ZM183 252Q183 153 241 123L291 437Q240 430 212 401T183 309V252Z" />
<glyph unicode="&#xa3;" glyph-name="sterling" horiz-adv-x="563" d="M47 409H116V490Q116 554 135 600T188 675T267 719T364 733Q424 733 460 723T517 699V584Q490 593 466 597T406 602Q380 602 358 597T318 577T289 538T277 475L275 409H442V301H270V283Q268
223 248 187T180 126V122H526V0H40V114Q75 134 95 167T116 258V301H47V409Z" />
<glyph unicode="&#xa5;" glyph-name="yen" horiz-adv-x="631" d="M68 370H208L23 721H192L250 599Q264 567 277 532T301 466Q312 430 323 395H326Q335 430 346 466Q356 497 368 532T396 599L454 721H608L423 370H564V273H397V204H564V107H397V0H235V107H68V204H235V273H68V370Z"
/>
<glyph unicode="&#xa6;" glyph-name="brokenbar" horiz-adv-x="310" d="M94 264H215V-125H94V264ZM94 764H215V393H94V764Z" />
<glyph unicode="&#xa7;" glyph-name="section" horiz-adv-x="556" d="M256 -137Q199 -137 152 -127T70 -97V20Q105 6 143 -5T236 -17Q336 -17 336 40Q336 67 321 79T263 103L192 123Q156 133 126 146T74 178T40 225T28 292Q28 341 54 373T130 422Q104 444 89 476T73
554Q73 637 127 685T296 733Q357 733 395 724T463 700V583Q435 594 399 604T312 614Q268 614 245 602T222 562Q222 536 235 524T285 501L363 479Q404 468 436 455T489 422T522 375T533 308Q533 256 508 224T434 175Q460 154 475 124T490 50Q490 -137 256 -137ZM219
379Q168 364 168 318Q168 291 185 275T252 245L338 220Q364 228 377 244T390 281Q390 309 371 325T298 357L219 379Z" />
<glyph unicode="&#xa8;" glyph-name="dieresis" horiz-adv-x="504" d="M292 757H429V631H292V757ZM74 757H211V631H74V757Z" />
<glyph unicode="&#xa9;" glyph-name="copyright" horiz-adv-x="823" d="M411 -15Q334 -15 268 14T154 94T78 213T50 358Q50 435 77 502T153 620T268 699T411 728Q487 728 553 699T668 620T745 503T773 358Q773 281 745 213T668 95T553 15T411 -15ZM411 40Q475
40 529 64T623 130T685 230T708 358Q708 427 686 485T624 584T530 649T411 673Q346 673 292 650T198 585T136 485T114 358Q114 289 136 231T198 130T292 64T411 40ZM427 163Q344 163 295 205T246 340V372Q246 421 260 455T300 512T359 543T430 553Q465 553 488
547T529 533V447Q512 452 494 456T451 461Q412 461 389 444T365 380V342Q365 294 386 274T453 253Q480 253 498 258T531 270V185Q513 177 489 170T427 163Z" />
<glyph unicode="&#xaa;" glyph-name="ordfeminine" horiz-adv-x="476" d="M219 321Q265 321 286 344V443L221 436Q191 433 179 419T166 375Q166 346 180 334T219 321ZM173 226Q109 226 71 260T32 364Q32 437 75 471T192 514L286 526V552Q286 591 265 605T189 619Q154
619 122 614T67 604V703Q102 717 145 724T242 732Q326 732 375 698T424 583V235H308L299 274H293Q277 252 247 239T173 226Z" />
<glyph unicode="&#xab;" glyph-name="guillemotleft" horiz-adv-x="554" d="M38 242V283L161 500H285L166 263L285 25H161L38 242ZM267 242V283L390 500H514L395 263L514 25H390L267 242Z" />
<glyph unicode="&#xae;" glyph-name="registered" horiz-adv-x="608" d="M200 588H320Q417 588 417 508Q417 485 407 469T378 445V442L430 339H347L307 424H278V339H200V588ZM304 228Q350 228 390 246T458 295T503 367T520 456Q520 504 504 545T459 618T390 667T304
684Q257 684 218 667T150 619T106 546T90 456Q90 408 105 367T149 296T217 247T304 228ZM277 473H310Q341 473 341 503Q341 517 334 525T310 533H277V473ZM304 177Q247 177 198 199T111 259T53 348T31 456Q31 514 52 565T111 654T197 713T304 735Q361 735 410 714T497
654T555 565T577 456Q577 399 556 349T497 260T411 199T304 177Z" />
<glyph unicode="&#xaf;" glyph-name="macron" horiz-adv-x="504" d="M101 752H402V645H101V752Z" />
<glyph unicode="&#xb0;" glyph-name="degree" horiz-adv-x="450" d="M225 377Q186 377 153 391T96 429T58 485T44 554Q44 590 57 622T95 678T153 716T225 730Q264 730 297 716T354 678T392 622T406 554Q406 518 393 486T355 429T297 391T225 377ZM225 457Q267
457 290 485T313 554Q313 593 290 621T225 650Q183 650 160 622T137 554Q137 513 160 485T225 457Z" />
<glyph unicode="&#xb1;" glyph-name="plusminus" horiz-adv-x="581" d="M226 329H52V452H226V604H356V452H529V329H356V176H226V329ZM52 0V123H529V0H52Z" />
<glyph unicode="&#xb4;" glyph-name="acute" horiz-adv-x="504" d="M255 791H414L305 621H179L255 791Z" />
<glyph unicode="&#xb6;" glyph-name="paragraph" horiz-adv-x="622" d="M275 341H249Q205 341 168 353T103 390T60 450T44 530Q44 571 57 606T97 666T167 706T269 721H551V-125H461V635H364V-125H275V341Z" />
<glyph unicode="&#xb7;" glyph-name="periodcentered" horiz-adv-x="280" d="M63 405H217V258H63V405Z" />
<glyph unicode="&#xb8;" glyph-name="cedilla" horiz-adv-x="504" d="M159 -184Q193 -181 215 -177T251 -168T269 -156T274 -139Q274 -122 257 -116T196 -107V0H276V-50Q333 -54 358 -76T384 -137Q384 -161 373 -180T336 -215T267 -239T159 -251V-184Z" />
<glyph unicode="&#xba;" glyph-name="ordmasculine" horiz-adv-x="522" d="M260 226Q147 226 91 285T35 450V502Q35 558 51 601T97 673T168 717T260 732Q375 732 431 674T487 506V455Q487 399 471 356T424 284T353 241T260 226ZM261 329Q303 329 324 356T345 447V505Q345
543 339 566T322 603T295 621T260 626Q218 626 197 600T176 509V451Q176 414 182 390T199 353T225 334T261 329Z" />
<glyph unicode="&#xbb;" glyph-name="guillemotright" horiz-adv-x="554" d="M388 262L269 500H392L516 283V242L392 25H269L388 262ZM159 262L40 500H164L286 283V242L164 25H40L159 262Z" />
<glyph unicode="&#xbc;" glyph-name="onequarter" horiz-adv-x="903" d="M131 590L31 579V660L183 723H262V271H131V590ZM637 742H746L271 -42H162L637 742ZM688 -72V25H491V112L694 380H812V115H879V25H812V-72H688ZM567 109Q578 110 590 111Q601 112 613 113T638
114H691V200Q691 212 691 226T694 252Q695 266 697 279H695Q689 264 682 249Q676 236 668 222T651 195L632 171Q622 158 611 148T590 129Q579 119 567 111V109Z" />
<glyph unicode="&#xbd;" glyph-name="onehalf" horiz-adv-x="915" d="M131 590L31 579V660L183 723H262V271H131V590ZM634 742H743L268 -42H159L634 742ZM577 17L668 97Q712 135 735 164T759 225V232Q759 263 739 274T683 286Q651 286 627 280T583 265V359Q606
370 641 378T725 387Q805 387 849 354T894 255V245Q894 189 863 149T776 68L720 27V24H900V-72H577V17Z" />
<glyph unicode="&#xbe;" glyph-name="threequarters" horiz-adv-x="927" d="M421 263Q370 263 336 271T278 291V376Q300 370 327 365T382 359Q431 359 451 372T472 411Q472 436 458 446T408 457H347V544H404Q439 544 452 556T466 591Q466 614 448 624T391 634Q362
634 337 630T292 620V706Q318 716 353 723T431 730Q503 730 547 701T591 615Q591 574 566 547T495 509V506Q549 498 577 474T605 399Q605 336 557 300T421 263ZM664 742H773L298 -42H189L664 742ZM713 -72V25H516V112L719 380H837V115H904V25H837V-72H713ZM592
109Q603 110 615 111Q626 112 638 113T663 114H716V200Q716 212 716 226T719 252Q720 266 722 279H720Q714 264 707 249Q701 236 693 222T676 195L657 171Q647 158 636 148T615 129Q604 119 592 111V109Z" />
<glyph unicode="&#xbf;" glyph-name="questiondown" horiz-adv-x="457" d="M343 303Q343 276 338 257T323 221T296 190T258 156Q225 129 210 110T194 59Q194 21 217 5T295 -12Q338 -12 368 -5T426 10V-101Q391 -118 349 -127T248 -137Q202 -137 163 -128T95 -97T50
-42T33 40Q33 74 39 98T58 143T90 181T136 220Q157 237 171 248T194 271T206 293T210 321V342H343V303ZM353 450H200V596H353V450Z" />
<glyph unicode="&#xc0;" glyph-name="Agrave" horiz-adv-x="680" d="M257 721H428L668 0H500L453 149H205L160 0H15L257 721ZM239 259H419L384 373Q373 409 364 451T347 532Q339 575 332 619H327Q320 576 311 532Q303 494 294 451T274 373L239 259ZM183 950H341L410
788H284L183 950Z" />
<glyph unicode="&#xc1;" glyph-name="Aacute" horiz-adv-x="680" d="M257 721H428L668 0H500L453 149H205L160 0H15L257 721ZM239 259H419L384 373Q373 409 364 451T347 532Q339 575 332 619H327Q320 576 311 532Q303 494 294 451T274 373L239 259ZM403 788H277L346
950H504L403 788Z" />
<glyph unicode="&#xc2;" glyph-name="Acircumflex" horiz-adv-x="680" d="M257 721H428L668 0H500L453 149H205L160 0H15L257 721ZM239 259H419L384 373Q373 409 364 451T347 532Q339 575 332 619H327Q320 576 311 532Q303 494 294 451T274 373L239 259ZM279 957H400L527
788H418L340 858L262 788H152L279 957Z" />
<glyph unicode="&#xc3;" glyph-name="Atilde" horiz-adv-x="680" d="M257 721H428L668 0H500L453 149H205L160 0H15L257 721ZM239 259H419L384 373Q373 409 364 451T347 532Q339 575 332 619H327Q320 576 311 532Q303 494 294 451T274 373L239 259ZM154 790Q157
829 168 857T196 903T234 930T276 939Q295 939 313 933T346 920T375 907T400 901Q431 901 437 939H530Q527 900 516 872T488 826T450 799T408 790Q388 790 371 796T339 809T310 822T285 828Q253 828 247 790H154V790Z" />
<glyph unicode="&#xc4;" glyph-name="Adieresis" horiz-adv-x="680" d="M257 721H428L668 0H500L453 149H205L160 0H15L257 721ZM239 259H419L384 373Q373 409 364 451T347 532Q339 575 332 619H327Q320 576 311 532Q303 494 294 451T274 373L239 259ZM377 918H520V793H377V918ZM159
918H302V793H159V918Z" />
<glyph unicode="&#xc5;" glyph-name="Aring" horiz-adv-x="680" d="M257 721H428L668 0H500L453 149H205L160 0H15L257 721ZM239 259H419L384 373Q373 409 364 451T347 532Q339 575 332 619H327Q320 576 311 532Q303 494 294 451T274 373L239 259ZM340 1018Q313
1018 290 1027T250 1052T224 1090T214 1138Q214 1164 223 1186T250 1224T290 1250T340 1259Q367 1259 390 1250T430 1225T456 1186T466 1138Q466 1112 457 1090T430 1052T390 1027T340 1018ZM340 1089Q362 1089 375 1102T389 1138Q389 1161 376 1174T340 1188Q318
1188 305 1175T291 1138Q291 1115 304 1102T340 1089Z" />
<glyph unicode="&#xc6;" glyph-name="AE" horiz-adv-x="951" d="M372 721H894V590H598V432H829V306H598V131H903V0H439V153H231L157 0H6L372 721ZM284 263H439V372Q439 409 439 453T442 536Q443 581 445 626H441Q426 584 409 542Q395 506 378 465T344 388L284 263Z" />
<glyph unicode="&#xc7;" glyph-name="Ccedilla" horiz-adv-x="585" d="M224 -184Q259 -181 281 -177T317 -168T335 -156T340 -139Q340 -122 323 -116T262 -107V-2Q157 20 99 99T41 324V395Q41 489 66 554T137 658T242 715T371 733Q431 733 473 725T546 699V570Q511
583 477 591T395 599Q351 599 318 590T261 558T225 500T213 411V331Q213 278 222 239T252 174T307 135T393 122Q449 122 486 133T552 158V29Q517 10 471 -1T359 -12H342V-50Q399 -54 424 -76T450 -137Q450 -161 439 -180T402 -215T332 -239T224 -251V-184Z" />
<glyph unicode="&#xc8;" glyph-name="Egrave" horiz-adv-x="584" d="M72 721H529V590H231V432H464V306H231V131H538V0H72V721ZM149 950H307L376 788H250L149 950Z" />
<glyph unicode="&#xc9;" glyph-name="Eacute" horiz-adv-x="584" d="M72 721H529V590H231V432H464V306H231V131H538V0H72V721ZM370 788H244L313 950H471L370 788Z" />
<glyph unicode="&#xca;" glyph-name="Ecircumflex" horiz-adv-x="584" d="M72 721H529V590H231V432H464V306H231V131H538V0H72V721ZM247 957H368L495 788H386L308 858L230 788H120L247 957Z" />
<glyph unicode="&#xcb;" glyph-name="Edieresis" horiz-adv-x="584" d="M72 721H529V590H231V432H464V306H231V131H538V0H72V721ZM345 918H488V793H345V918ZM127 918H270V793H127V918Z" />
<glyph unicode="&#xcc;" glyph-name="Igrave" horiz-adv-x="302" d="M72 721H234V0H72V721ZM248 950H406L475 788H349L248 950Z" />
<glyph unicode="&#xcd;" glyph-name="Iacute" horiz-adv-x="302" d="M72 721H234V0H72V721ZM471 788H345L414 950H572L471 788Z" />
<glyph unicode="&#xce;" glyph-name="Icircumflex" horiz-adv-x="302" d="M72 721H234V0H72V721ZM349 957H470L597 788H488L410 858L332 788H222L349 957Z" />
<glyph unicode="&#xcf;" glyph-name="Idieresis" horiz-adv-x="302" d="M186 921H329V796H186V921ZM-27 921H116V796H-27V921ZM72 721H234V0H72V721Z" />
<glyph unicode="&#xd0;" glyph-name="Eth" horiz-adv-x="695" d="M72 299H10V423H72V721H321Q402 721 464 704T569 648T634 549T656 400V334Q656 161 571 81T323 0H72V299ZM320 129Q363 129 394 138T446 169T476 229T486 323V402Q486 460 475 497T442 555T388
584T314 592H234V423H373V299H234V129H320Z" />
<glyph unicode="&#xd1;" glyph-name="Ntilde" horiz-adv-x="713" d="M72 721H251L391 477Q410 443 430 399T469 314Q489 266 510 218H513Q509 271 506 321Q504 364 502 411T500 494V721H645V0H488L326 285Q307 317 286 363T248 451Q227 500 207 551H203Q206 496
210 442Q212 396 214 346T217 260V0H72V721ZM181 790Q184 829 195 857T223 903T261 930T303 939Q322 939 340 933T373 920T402 907T427 901Q458 901 464 939H557Q554 900 543 872T515 826T477 799T435 790Q415 790 398 796T366 809T337 822T312 828Q280 828 274
790H181V790Z" />
<glyph unicode="&#xd2;" glyph-name="Ograve" horiz-adv-x="718" d="M360 -12Q291 -12 233 7T133 67T67 171T43 324V395Q43 484 68 548T136 653T237 713T364 733Q433 733 491 714T590 655T655 550T679 397V326Q679 237 655 174T587 69T486 8T360 -12ZM362 111Q437
111 473 161T509 314V397Q509 509 476 559T360 609Q285 609 250 560T214 410V326Q214 212 248 162T362 111ZM201 950H359L428 788H302L201 950Z" />
<glyph unicode="&#xd3;" glyph-name="Oacute" horiz-adv-x="718" d="M360 -12Q291 -12 233 7T133 67T67 171T43 324V395Q43 484 68 548T136 653T237 713T364 733Q433 733 491 714T590 655T655 550T679 397V326Q679 237 655 174T587 69T486 8T360 -12ZM362 111Q437
111 473 161T509 314V397Q509 509 476 559T360 609Q285 609 250 560T214 410V326Q214 212 248 162T362 111ZM421 788H295L364 950H522L421 788Z" />
<glyph unicode="&#xd4;" glyph-name="Ocircumflex" horiz-adv-x="718" d="M360 -12Q291 -12 233 7T133 67T67 171T43 324V395Q43 484 68 548T136 653T237 713T364 733Q433 733 491 714T590 655T655 550T679 397V326Q679 237 655 174T587 69T486 8T360 -12ZM362
111Q437 111 473 161T509 314V397Q509 509 476 559T360 609Q285 609 250 560T214 410V326Q214 212 248 162T362 111ZM301 957H422L549 788H440L362 858L284 788H174L301 957Z" />
<glyph unicode="&#xd5;" glyph-name="Otilde" horiz-adv-x="718" d="M360 -12Q291 -12 233 7T133 67T67 171T43 324V395Q43 484 68 548T136 653T237 713T364 733Q433 733 491 714T590 655T655 550T679 397V326Q679 237 655 174T587 69T486 8T360 -12ZM362 111Q437
111 473 161T509 314V397Q509 509 476 559T360 609Q285 609 250 560T214 410V326Q214 212 248 162T362 111ZM173 790Q176 829 187 857T215 903T253 930T295 939Q314 939 332 933T365 920T394 907T419 901Q450 901 456 939H549Q546 900 535 872T507 826T469 799T427
790Q407 790 390 796T358 809T329 822T304 828Q272 828 266 790H173V790Z" />
<glyph unicode="&#xd6;" glyph-name="Odieresis" horiz-adv-x="718" d="M360 -12Q291 -12 233 7T133 67T67 171T43 324V395Q43 484 68 548T136 653T237 713T364 733Q433 733 491 714T590 655T655 550T679 397V326Q679 237 655 174T587 69T486 8T360 -12ZM362 111Q437
111 473 161T509 314V397Q509 509 476 559T360 609Q285 609 250 560T214 410V326Q214 212 248 162T362 111ZM399 918H542V793H399V918ZM181 918H324V793H181V918Z" />
<glyph unicode="&#xd7;" glyph-name="multiply" horiz-adv-x="597" d="M61 174L210 325L61 476L149 564L299 413L449 564L537 476L387 325L537 174L449 85L299 236L149 85L61 174Z" />
<glyph unicode="&#xd8;" glyph-name="Oslash" horiz-adv-x="718" d="M358 -12Q272 -12 201 22L147 -62H28L121 83Q83 125 62 184T41 324V395Q41 484 66 548T134 653T235 713T362 733Q449 733 519 698L561 762H680L599 637Q636 595 656 536T677 397V326Q677 237
653 174T585 69T484 8T358 -12ZM202 326Q202 263 211 221L451 592Q418 612 358 612Q281 612 242 562T202 410V326ZM360 108Q436 108 476 159T516 314V397Q516 453 508 496L269 127Q303 108 360 108Z" />
<glyph unicode="&#xd9;" glyph-name="Ugrave" horiz-adv-x="695" d="M354 -13Q211 -13 139 49T67 241V721H230V248Q230 171 262 143T359 114Q392 114 415 120T455 142T478 184T486 249V721H632V243Q632 112 565 50T354 -13ZM200 950H358L427 788H301L200 950Z" />
<glyph unicode="&#xda;" glyph-name="Uacute" horiz-adv-x="695" d="M354 -13Q211 -13 139 49T67 241V721H230V248Q230 171 262 143T359 114Q392 114 415 120T455 142T478 184T486 249V721H632V243Q632 112 565 50T354 -13ZM414 788H288L357 950H515L414 788Z" />
<glyph unicode="&#xdb;" glyph-name="Ucircumflex" horiz-adv-x="695" d="M354 -13Q211 -13 139 49T67 241V721H230V248Q230 171 262 143T359 114Q392 114 415 120T455 142T478 184T486 249V721H632V243Q632 112 565 50T354 -13ZM294 957H415L542 788H433L355
858L277 788H167L294 957Z" />
<glyph unicode="&#xdc;" glyph-name="Udieresis" horiz-adv-x="695" d="M354 -13Q211 -13 139 49T67 241V721H230V248Q230 171 262 143T359 114Q392 114 415 120T455 142T478 184T486 249V721H632V243Q632 112 565 50T354 -13ZM394 918H537V793H394V918ZM176 918H319V793H176V918Z"
/>
<glyph unicode="&#xdd;" glyph-name="Yacute" horiz-adv-x="624" d="M233 281L11 721H180L241 590Q255 559 269 522T295 453Q308 415 321 376H324Q335 415 348 453Q359 485 373 522T401 590L462 721H616L395 281V0H233V281ZM380 788H254L323 950H481L380 788Z" />
<glyph unicode="&#xde;" glyph-name="Thorn" horiz-adv-x="621" d="M70 721H232V598H339Q405 598 452 582T531 537T577 468T592 379Q592 272 529 211T344 149H232V0H70V721ZM318 267Q379 267 402 291T425 370Q425 431 402 453T322 475H232V267H318Z" />
<glyph unicode="&#xdf;" glyph-name="germandbls" horiz-adv-x="590" d="M336 -8Q310 -8 293 -5T264 3V112Q273 109 287 107T314 105Q357 105 381 129T406 208Q406 276 376 314T277 371V476Q382 489 382 581Q382 667 297 667Q255 667 231 639T207 550V0H58V550Q58
607 75 650T124 721T201 764T300 778Q407 778 466 730T526 594Q526 525 487 486T382 430V425Q471 397 514 345T558 203Q558 102 505 47T336 -8Z" />
<glyph unicode="&#xe0;" glyph-name="agrave" horiz-adv-x="521" d="M194 -10Q121 -10 76 29T31 147Q31 188 43 217T79 265T136 296T212 312L319 327V360Q319 404 295 419T209 435Q170 435 135 430T74 419V527Q152 558 267 558Q365 558 416 518T468 385V0H345L333
53H327Q310 26 277 8T194 -10ZM244 88Q267 88 287 95T319 114V243L243 235Q208 231 192 213T176 158Q176 120 195 104T244 88ZM99 791H257L334 621H208L99 791Z" />
<glyph unicode="&#xe1;" glyph-name="aacute" horiz-adv-x="521" d="M194 -10Q121 -10 76 29T31 147Q31 188 43 217T79 265T136 296T212 312L319 327V360Q319 404 295 419T209 435Q170 435 135 430T74 419V527Q152 558 267 558Q365 558 416 518T468 385V0H345L333
53H327Q310 26 277 8T194 -10ZM244 88Q267 88 287 95T319 114V243L243 235Q208 231 192 213T176 158Q176 120 195 104T244 88ZM258 791H417L308 621H182L258 791Z" />
<glyph unicode="&#xe2;" glyph-name="acircumflex" horiz-adv-x="521" d="M194 -10Q121 -10 76 29T31 147Q31 188 43 217T79 265T136 296T212 312L319 327V360Q319 404 295 419T209 435Q170 435 135 430T74 419V527Q152 558 267 558Q365 558 416 518T468 385V0H345L333
53H327Q310 26 277 8T194 -10ZM244 88Q267 88 287 95T319 114V243L243 235Q208 231 192 213T176 158Q176 120 195 104T244 88ZM201 806H322L449 621H340L262 706L184 621H74L201 806Z" />
<glyph unicode="&#xe3;" glyph-name="atilde" horiz-adv-x="521" d="M194 -10Q121 -10 76 29T31 147Q31 188 43 217T79 265T136 296T212 312L319 327V360Q319 404 295 419T209 435Q170 435 135 430T74 419V527Q152 558 267 558Q365 558 416 518T468 385V0H345L333
53H327Q310 26 277 8T194 -10ZM244 88Q267 88 287 95T319 114V243L243 235Q208 231 192 213T176 158Q176 120 195 104T244 88ZM73 627Q76 666 87 693T115 738T152 764T194 773Q214 773 231 767T264 754T292 741T317 735Q332 735 341 745T354 773H447Q444 734 433
707T405 662T367 636T325 627Q305 627 288 633T256 646T228 659T203 665Q172 665 166 627H73V627Z" />
<glyph unicode="&#xe4;" glyph-name="adieresis" horiz-adv-x="521" d="M194 -10Q121 -10 76 29T31 147Q31 188 43 217T79 265T136 296T212 312L319 327V360Q319 404 295 419T209 435Q170 435 135 430T74 419V527Q152 558 267 558Q365 558 416 518T468 385V0H345L333
53H327Q310 26 277 8T194 -10ZM244 88Q267 88 287 95T319 114V243L243 235Q208 231 192 213T176 158Q176 120 195 104T244 88ZM301 757H438V631H301V757ZM83 757H220V631H83V757Z" />
<glyph unicode="&#xe5;" glyph-name="aring" horiz-adv-x="521" d="M192 -10Q119 -10 74 29T29 147Q29 188 41 217T77 265T134 296T210 312L317 327V360Q317 404 293 419T207 435Q168 435 133 430T72 419V527Q150 558 265 558Q363 558 414 518T466 385V0H343L331
53H325Q308 26 275 8T192 -10ZM242 88Q265 88 285 95T317 114V243L241 235Q206 231 190 213T174 158Q174 120 193 104T242 88ZM262 614Q235 614 212 623T172 648T146 686T136 734Q136 759 145 781T172 820T212 845T262 855Q289 855 312 846T352 820T378 782T388
734Q388 708 379 686T352 648T312 623T262 614ZM262 684Q284 684 297 697T311 734Q311 757 298 770T262 784Q240 784 227 771T213 734Q213 711 226 698T262 684Z" />
<glyph unicode="&#xe6;" glyph-name="ae" horiz-adv-x="839" d="M198 -10Q120 -10 75 29T30 147Q30 188 42 217T78 265T135 295T211 312L323 326V360Q323 404 297 419T208 435Q169 435 134 430T73 419V527Q113 543 158 550T261 558Q316 558 354 544T414 496Q471
558 571 558Q694 558 750 495T807 300V230H475Q477 193 487 169T516 132T562 113T628 108Q679 108 717 117T788 139V36Q759 20 712 5T593 -10Q441 -10 375 73Q345 34 300 12T198 -10ZM343 131Q326 178 324 242L242 234Q207 231 192 213T176 158Q176 120 195 104T245
88Q274 88 298 99T343 131ZM571 452Q552 452 535 447T505 429T482 391T472 327H662Q662 364 656 388T638 426T609 446T571 452Z" />
<glyph unicode="&#xe7;" glyph-name="ccedilla" horiz-adv-x="471" d="M381 -137Q381 -161 370 -180T333 -215T264 -239T156 -251V-184Q191 -181 213 -177T248 -168T266 -156T271 -139Q271 -122 255 -116T194 -107V1Q116 21 74 81T32 244V296Q32 363 50 412T103
494T186 542T294 558Q348 558 381 550T439 528V411Q425 417 412 422T385 430T354 435T315 437Q255 437 220 408T185 309V252Q185 174 217 142T320 110Q362 110 392 120T443 139V29Q420 13 382 2T287 -10H274V-50Q331 -54 356 -76T381 -137Z" />
<glyph unicode="&#xe8;" glyph-name="egrave" horiz-adv-x="547" d="M304 -10Q167 -10 101 54T34 248V300Q34 363 52 411T102 492T181 541T283 558Q405 558 461 495T518 300V229H186Q188 192 198 169T227 132T274 113T340 108Q390 108 428 117T499 139V36Q470
20 423 5T304 -10ZM282 452Q263 452 246 447T215 428T193 390T183 326H373Q373 363 367 387T349 426T320 446T282 452ZM112 791H270L347 621H221L112 791Z" />
<glyph unicode="&#xe9;" glyph-name="eacute" horiz-adv-x="547" d="M304 -10Q167 -10 101 54T34 248V300Q34 363 52 411T102 492T181 541T283 558Q405 558 461 495T518 300V229H186Q188 192 198 169T227 132T274 113T340 108Q390 108 428 117T499 139V36Q470
20 423 5T304 -10ZM282 452Q263 452 246 447T215 428T193 390T183 326H373Q373 363 367 387T349 426T320 446T282 452ZM287 791H446L337 621H211L287 791Z" />
<glyph unicode="&#xea;" glyph-name="ecircumflex" horiz-adv-x="547" d="M304 -10Q167 -10 101 54T34 248V300Q34 363 52 411T102 492T181 541T283 558Q405 558 461 495T518 300V229H186Q188 192 198 169T227 132T274 113T340 108Q390 108 428 117T499 139V36Q470
20 423 5T304 -10ZM282 452Q263 452 246 447T215 428T193 390T183 326H373Q373 363 367 387T349 426T320 446T282 452ZM217 806H338L465 621H356L278 706L200 621H90L217 806Z" />
<glyph unicode="&#xeb;" glyph-name="edieresis" horiz-adv-x="547" d="M304 -10Q167 -10 101 54T34 248V300Q34 363 52 411T102 492T181 541T283 558Q405 558 461 495T518 300V229H186Q188 192 198 169T227 132T274 113T340 108Q390 108 428 117T499 139V36Q470
20 423 5T304 -10ZM282 452Q263 452 246 447T215 428T193 390T183 326H373Q373 363 367 387T349 426T320 446T282 452ZM319 757H456V631H319V757ZM101 757H238V631H101V757Z" />
<glyph unicode="&#xec;" glyph-name="igrave" horiz-adv-x="265" d="M60 548H209V0H60V548ZM223 791H381L458 621H332L223 791Z" />
<glyph unicode="&#xed;" glyph-name="iacute" horiz-adv-x="265" d="M60 548H209V0H60V548ZM402 791H561L452 621H326L402 791Z" />
<glyph unicode="&#xee;" glyph-name="icircumflex" horiz-adv-x="265" d="M60 548H209V0H60V548ZM330 806H451L578 621H469L391 706L313 621H203L330 806Z" />
<glyph unicode="&#xef;" glyph-name="idieresis" horiz-adv-x="265" d="M166 757H298V631H166V757ZM-28 757H104V631H-28V757ZM60 548H209V0H60V548Z" />
<glyph unicode="&#xf0;" glyph-name="eth" horiz-adv-x="581" d="M406 662Q434 632 459 597T504 519T534 428T545 324V259Q545 189 526 139T473 55T392 6T288 -10Q160 -10 97 55T33 240V289Q33 351 50 397T97 474T168 520T257 535Q317 535 359 498H361Q345 530
324 561T277 621L126 574V658L215 686Q189 710 165 731T117 769H274Q289 759 304 749T337 725L483 771V686L406 662ZM289 100Q339 100 365 130T392 236V294Q392 329 390 357T382 407Q368 418 344 426T289 435Q238 435 212 405T186 299V240Q186 196 193 169T214
127T247 106T289 100Z" />
<glyph unicode="&#xf1;" glyph-name="ntilde" horiz-adv-x="584" d="M60 548H204V484H209Q242 519 285 538T378 558Q452 558 491 523T531 408V0H382V366Q382 403 366 418T306 433Q281 433 255 427T209 410V0H60V548ZM107 627Q110 666 121 693T149 738T186 764T228
773Q248 773 265 767T298 754T326 741T351 735Q366 735 375 745T388 773H481Q478 734 467 707T439 662T401 636T359 627Q339 627 322 633T290 646T262 659T237 665Q206 665 200 627H107V627Z" />
<glyph unicode="&#xf2;" glyph-name="ograve" horiz-adv-x="578" d="M291 -10Q166 -10 101 55T35 246V296Q35 361 54 410T108 492T189 541T292 558Q417 558 482 493T547 302V252Q547 186 528 137T475 56T394 7T291 -10ZM293 100Q317 100 336 107T368 131T387 175T394
242V299Q394 346 387 375T365 420T332 441T291 447Q241 447 215 415T188 304V247Q188 201 196 172T218 127T251 106T293 100ZM124 791H282L359 621H233L124 791Z" />
<glyph unicode="&#xf3;" glyph-name="oacute" horiz-adv-x="578" d="M291 -10Q166 -10 101 55T35 246V296Q35 361 54 410T108 492T189 541T292 558Q417 558 482 493T547 302V252Q547 186 528 137T475 56T394 7T291 -10ZM293 100Q317 100 336 107T368 131T387 175T394
242V299Q394 346 387 375T365 420T332 441T291 447Q241 447 215 415T188 304V247Q188 201 196 172T218 127T251 106T293 100ZM298 791H457L348 621H222L298 791Z" />
<glyph unicode="&#xf4;" glyph-name="ocircumflex" horiz-adv-x="578" d="M291 -10Q166 -10 101 55T35 246V296Q35 361 54 410T108 492T189 541T292 558Q417 558 482 493T547 302V252Q547 186 528 137T475 56T394 7T291 -10ZM293 100Q317 100 336 107T368 131T387
175T394 242V299Q394 346 387 375T365 420T332 441T291 447Q241 447 215 415T188 304V247Q188 201 196 172T218 127T251 106T293 100ZM230 806H351L478 621H369L291 706L213 621H103L230 806Z" />
<glyph unicode="&#xf5;" glyph-name="otilde" horiz-adv-x="578" d="M291 -10Q166 -10 101 55T35 246V296Q35 361 54 410T108 492T189 541T292 558Q417 558 482 493T547 302V252Q547 186 528 137T475 56T394 7T291 -10ZM293 100Q317 100 336 107T368 131T387 175T394
242V299Q394 346 387 375T365 420T332 441T291 447Q241 447 215 415T188 304V247Q188 201 196 172T218 127T251 106T293 100ZM105 627Q108 666 119 693T147 738T184 764T226 773Q246 773 263 767T296 754T324 741T349 735Q364 735 373 745T386 773H479Q476 734
465 707T437 662T399 636T357 627Q337 627 320 633T288 646T260 659T235 665Q204 665 198 627H105V627Z" />
<glyph unicode="&#xf6;" glyph-name="odieresis" horiz-adv-x="578" d="M291 -10Q166 -10 101 55T35 246V296Q35 361 54 410T108 492T189 541T292 558Q417 558 482 493T547 302V252Q547 186 528 137T475 56T394 7T291 -10ZM293 100Q317 100 336 107T368 131T387
175T394 242V299Q394 346 387 375T365 420T332 441T291 447Q241 447 215 415T188 304V247Q188 201 196 172T218 127T251 106T293 100ZM332 757H469V631H332V757ZM114 757H251V631H114V757Z" />
<glyph unicode="&#xf7;" glyph-name="divide" horiz-adv-x="581" d="M52 405H529V282H52V405ZM214 200H366V54H214V200ZM214 633H366V487H214V633Z" />
<glyph unicode="&#xf8;" glyph-name="oslash" horiz-adv-x="578" d="M289 -10Q223 -10 171 13L122 -62H17L99 63Q67 96 50 142T33 246V296Q33 361 52 410T106 492T187 541T290 558Q356 558 411 533L448 590H553L482 482Q512 449 528 404T545 302V252Q545 186 526
137T473 56T392 7T289 -10ZM178 247Q178 230 179 216T183 189L348 438Q335 446 320 448T289 451Q239 451 209 418T178 304V247ZM291 97Q341 97 371 129T401 242V299Q401 315 400 328T397 354L234 108Q257 97 291 97Z" />
<glyph unicode="&#xf9;" glyph-name="ugrave" horiz-adv-x="577" d="M212 -11Q137 -11 97 28T57 148V548H206V183Q206 145 220 128T276 110Q303 110 327 119T371 138V548H521V0H391L380 64H375Q340 29 301 9T212 -11ZM121 791H279L356 621H230L121 791Z" />
<glyph unicode="&#xfa;" glyph-name="uacute" horiz-adv-x="577" d="M212 -11Q137 -11 97 28T57 148V548H206V183Q206 145 220 128T276 110Q303 110 327 119T371 138V548H521V0H391L380 64H375Q340 29 301 9T212 -11ZM299 791H458L349 621H223L299 791Z" />
<glyph unicode="&#xfb;" glyph-name="ucircumflex" horiz-adv-x="577" d="M212 -11Q137 -11 97 28T57 148V548H206V183Q206 145 220 128T276 110Q303 110 327 119T371 138V548H521V0H391L380 64H375Q340 29 301 9T212 -11ZM231 806H352L479 621H370L292 706L214
621H104L231 806Z" />
<glyph unicode="&#xfc;" glyph-name="udieresis" horiz-adv-x="577" d="M212 -11Q137 -11 97 28T57 148V548H206V183Q206 145 220 128T276 110Q303 110 327 119T371 138V548H521V0H391L380 64H375Q340 29 301 9T212 -11ZM332 757H469V631H332V757ZM114 757H251V631H114V757Z"
/>
<glyph unicode="&#xfd;" glyph-name="yacute" horiz-adv-x="536" d="M125 -206Q100 -206 72 -202T30 -189V-85Q42 -87 57 -89T86 -91Q128 -91 150 -75T185 -26L199 12L6 548H162L218 376Q230 340 240 294T258 206Q267 158 274 108H277Q284 158 294 206Q302 248
312 294T334 376L387 548H531L329 -48Q315 -88 298 -118T256 -167T200 -196T125 -206ZM289 791H448L339 621H213L289 791Z" />
<glyph unicode="&#xfe;" glyph-name="thorn" horiz-adv-x="592" d="M57 769H207V491H212Q233 520 271 539T361 558Q401 558 436 546T499 506T541 430T557 311V262Q557 187 541 135T496 51T425 4T331 -10Q285 -10 255 3T207 30V-203H57V769ZM293 97Q320 97 340
103T375 126T396 171T403 242V298Q403 340 397 367T377 409T344 430T298 436Q267 436 244 428T207 409V122Q220 112 243 105T293 97Z" />
<glyph unicode="&#xff;" glyph-name="ydieresis" horiz-adv-x="536" d="M125 -206Q100 -206 72 -202T30 -189V-85Q42 -87 57 -89T86 -91Q128 -91 150 -75T185 -26L199 12L6 548H162L218 376Q230 340 240 294T258 206Q267 158 274 108H277Q284 158 294 206Q302
248 312 294T334 376L387 548H531L329 -48Q315 -88 298 -118T256 -167T200 -196T125 -206ZM318 757H455V631H318V757ZM100 757H237V631H100V757Z" />
<glyph unicode="&#x100;" glyph-name="Amacron" horiz-adv-x="680" d="M257 721H428L668 0H500L453 149H205L160 0H15L257 721ZM239 259H419L384 373Q373 409 364 451T347 532Q339 575 332 619H327Q320 576 311 532Q303 494 294 451T274 373L239 259ZM173 908H509V805H173V908Z"
/>
<glyph unicode="&#x101;" glyph-name="amacron" horiz-adv-x="521" d="M194 -10Q121 -10 76 29T31 147Q31 188 43 217T79 265T136 296T212 312L319 327V360Q319 404 295 419T209 435Q170 435 135 430T74 419V527Q152 558 267 558Q365 558 416 518T468 385V0H345L333
53H327Q310 26 277 8T194 -10ZM244 88Q267 88 287 95T319 114V243L243 235Q208 231 192 213T176 158Q176 120 195 104T244 88ZM108 752H409V645H108V752Z" />
<glyph unicode="&#x102;" glyph-name="Abreve" horiz-adv-x="680" d="M257 721H428L668 0H500L453 149H205L160 0H15L257 721ZM239 259H419L384 373Q373 409 364 451T347 532Q339 575 332 619H327Q320 576 311 532Q303 494 294 451T274 373L239 259ZM342 781Q265
781 221 826T172 949H276Q279 918 296 902T342 885Q369 885 387 901T409 949H513Q510 871 465 826T342 781Z" />
<glyph unicode="&#x103;" glyph-name="abreve" horiz-adv-x="521" d="M194 -10Q121 -10 76 29T31 147Q31 188 43 217T79 265T136 296T212 312L319 327V360Q319 404 295 419T209 435Q170 435 135 430T74 419V527Q152 558 267 558Q365 558 416 518T468 385V0H345L333
53H327Q310 26 277 8T194 -10ZM244 88Q267 88 287 95T319 114V243L243 235Q208 231 192 213T176 158Q176 120 195 104T244 88ZM263 616Q228 616 198 627T145 661T109 717T94 794H197Q201 754 219 738T263 721Q289 721 307 737T329 794H432Q430 706 382 661T263
616Z" />
<glyph unicode="&#x104;" glyph-name="Aogonek" horiz-adv-x="680" d="M498 0L451 149H203L158 0H13L255 721H426L663 7Q630 -20 615 -44T600 -93Q600 -113 613 -122T646 -131Q656 -131 670 -129T689 -125V-196Q678 -202 655 -207T605 -213Q539 -213 511 -187T482
-120Q482 -99 490 -81T512 -48T543 -21T578 0H498ZM237 259H417L382 373Q371 409 362 451T345 532Q337 575 330 619H325Q318 576 309 532Q301 494 292 451T272 373L237 259Z" />
<glyph unicode="&#x105;" glyph-name="aogonek" horiz-adv-x="521" d="M343 0L331 53H325Q308 26 275 8T192 -10Q119 -10 74 29T29 147Q29 188 41 217T77 265T134 296T210 312L317 327V360Q317 404 293 419T207 435Q168 435 133 430T72 419V527Q150 558 265 558Q363
558 414 518T466 385V9Q430 -19 415 -44T400 -93Q400 -113 413 -122T446 -131Q456 -131 470 -129T489 -125V-196Q478 -202 455 -207T405 -213Q339 -213 311 -187T282 -120Q282 -99 290 -81T312 -48T343 -21T378 0H343ZM242 88Q265 88 285 95T317 114V243L241 235Q206
231 190 213T174 158Q174 120 193 104T242 88Z" />
<glyph unicode="&#x106;" glyph-name="Cacute" horiz-adv-x="585" d="M361 -12Q287 -12 228 7T128 68T65 172T43 324V395Q43 489 68 554T139 658T244 715T373 733Q433 733 475 725T548 699V570Q513 583 479 591T397 599Q353 599 320 590T263 558T227 500T215 411V331Q215
278 224 239T254 174T309 135T395 122Q451 122 488 133T554 158V29Q519 10 473 -1T361 -12ZM410 788H284L353 950H511L410 788Z" />
<glyph unicode="&#x107;" glyph-name="cacute" horiz-adv-x="471" d="M289 -10Q166 -10 100 52T34 244V296Q34 363 52 412T105 494T188 542T296 558Q350 558 383 550T441 528V411Q427 417 414 422T387 430T356 435T317 437Q257 437 222 408T187 309V252Q187 174
219 142T322 110Q364 110 394 120T445 139V29Q422 13 384 2T289 -10ZM276 791H435L326 621H200L276 791Z" />
<glyph unicode="&#x108;" glyph-name="Ccircumflex" horiz-adv-x="585" d="M361 -12Q287 -12 228 7T128 68T65 172T43 324V395Q43 489 68 554T139 658T244 715T373 733Q433 733 475 725T548 699V570Q513 583 479 591T397 599Q353 599 320 590T263 558T227 500T215
411V331Q215 278 224 239T254 174T309 135T395 122Q451 122 488 133T554 158V29Q519 10 473 -1T361 -12ZM287 957H408L535 788H426L348 858L270 788H160L287 957Z" />
<glyph unicode="&#x109;" glyph-name="ccircumflex" horiz-adv-x="471" d="M289 -10Q166 -10 100 52T34 244V296Q34 363 52 412T105 494T188 542T296 558Q350 558 383 550T441 528V411Q427 417 414 422T387 430T356 435T317 437Q257 437 222 408T187 309V252Q187
174 219 142T322 110Q364 110 394 120T445 139V29Q422 13 384 2T289 -10ZM215 806H336L463 621H354L276 706L198 621H88L215 806Z" />
<glyph unicode="&#x10a;" glyph-name="Cdotaccent" horiz-adv-x="585" d="M361 -12Q287 -12 228 7T128 68T65 172T43 324V395Q43 489 68 554T139 658T244 715T373 733Q433 733 475 725T548 699V570Q513 583 479 591T397 599Q353 599 320 590T263 558T227 500T215
411V331Q215 278 224 239T254 174T309 135T395 122Q451 122 488 133T554 158V29Q519 10 473 -1T361 -12ZM270 921H424V794H270V921Z" />
<glyph unicode="&#x10b;" glyph-name="cdotaccent" horiz-adv-x="471" d="M289 -10Q166 -10 100 52T34 244V296Q34 363 52 412T105 494T188 542T296 558Q350 558 383 550T441 528V411Q427 417 414 422T387 430T356 435T317 437Q257 437 222 408T187 309V252Q187
174 219 142T322 110Q364 110 394 120T445 139V29Q422 13 384 2T289 -10ZM199 768H351V636H199V768Z" />
<glyph unicode="&#x10c;" glyph-name="Ccaron" horiz-adv-x="585" d="M361 -12Q287 -12 228 7T128 68T65 172T43 324V395Q43 489 68 554T139 658T244 715T373 733Q433 733 475 725T548 699V570Q513 583 479 591T397 599Q353 599 320 590T263 558T227 500T215 411V331Q215
278 224 239T254 174T309 135T395 122Q451 122 488 133T554 158V29Q519 10 473 -1T361 -12ZM409 788H288L161 957H271L349 887L427 957H536L409 788Z" />
<glyph unicode="&#x10d;" glyph-name="ccaron" horiz-adv-x="471" d="M289 -10Q166 -10 100 52T34 244V296Q34 363 52 412T105 494T188 542T296 558Q350 558 383 550T441 528V411Q427 417 414 422T387 430T356 435T317 437Q257 437 222 408T187 309V252Q187 174
219 142T322 110Q364 110 394 120T445 139V29Q422 13 384 2T289 -10ZM337 621H216L91 806H199L277 720L355 806H463L337 621Z" />
<glyph unicode="&#x10e;" glyph-name="Dcaron" horiz-adv-x="695" d="M72 721H321Q402 721 464 704T569 648T634 549T656 400V334Q656 161 571 81T323 0H72V721ZM320 129Q363 129 394 138T446 169T476 229T486 323V402Q486 460 475 497T442 555T388 584T314 592H234V129H320ZM394
788H273L146 957H256L334 887L412 957H521L394 788Z" />
<glyph unicode="&#x10f;" glyph-name="dcaron" horiz-adv-x="591" d="M243 -10Q202 -10 165 3T100 45T54 123T37 241V291Q37 364 54 415T101 498T173 544T266 558Q312 558 341 545T386 516V769H535V0H406L395 59H390Q364 27 328 9T243 -10ZM298 106Q328 106 350
116T386 137V423Q373 434 351 440T300 447Q274 447 254 441T219 419T198 374T190 303V247Q190 204 197 177T218 134T252 112T298 106ZM591 769H723L692 598H587L591 769Z" />
<glyph unicode="&#x110;" glyph-name="Dcroat" horiz-adv-x="695" d="M74 299H12V423H74V721H323Q404 721 466 704T571 648T636 549T658 400V334Q658 161 573 81T325 0H74V299ZM322 129Q365 129 396 138T448 169T478 229T488 323V402Q488 460 477 497T444 555T390
584T316 592H236V423H375V299H236V129H322Z" />
<glyph unicode="&#x111;" glyph-name="dcroat" horiz-adv-x="591" d="M234 707H594V621H234V707ZM243 -10Q202 -10 165 3T100 45T54 123T37 241V291Q37 364 54 415T101 498T173 544T266 558Q312 558 341 545T386 516V769H535V0H406L395 59H390Q364 27 328 9T243
-10ZM298 106Q328 106 350 116T386 137V423Q373 434 351 440T300 447Q274 447 254 441T219 419T198 374T190 303V247Q190 204 197 177T218 134T252 112T298 106Z" />
<glyph unicode="&#x112;" glyph-name="Emacron" horiz-adv-x="584" d="M72 721H529V590H231V432H464V306H231V131H538V0H72V721ZM139 908H475V805H139V908Z" />
<glyph unicode="&#x113;" glyph-name="emacron" horiz-adv-x="547" d="M304 -10Q167 -10 101 54T34 248V300Q34 363 52 411T102 492T181 541T283 558Q405 558 461 495T518 300V229H186Q188 192 198 169T227 132T274 113T340 108Q390 108 428 117T499 139V36Q470
20 423 5T304 -10ZM282 452Q263 452 246 447T215 428T193 390T183 326H373Q373 363 367 387T349 426T320 446T282 452ZM125 752H426V645H125V752Z" />
<glyph unicode="&#x114;" glyph-name="Ebreve" horiz-adv-x="584" d="M72 721H529V590H231V432H464V306H231V131H538V0H72V721ZM305 781Q228 781 184 826T135 949H239Q242 918 259 902T305 885Q332 885 350 901T372 949H476Q473 871 428 826T305 781Z" />
<glyph unicode="&#x115;" glyph-name="ebreve" horiz-adv-x="547" d="M304 -10Q167 -10 101 54T34 248V300Q34 363 52 411T102 492T181 541T283 558Q405 558 461 495T518 300V229H186Q188 192 198 169T227 132T274 113T340 108Q390 108 428 117T499 139V36Q470
20 423 5T304 -10ZM282 452Q263 452 246 447T215 428T193 390T183 326H373Q373 363 367 387T349 426T320 446T282 452ZM279 616Q244 616 214 627T161 661T125 717T110 794H213Q217 754 235 738T279 721Q305 721 323 737T345 794H448Q446 706 398 661T279 616Z"
/>
<glyph unicode="&#x116;" glyph-name="Edotaccent" horiz-adv-x="584" d="M72 721H529V590H231V432H464V306H231V131H538V0H72V721ZM228 921H382V794H228V921Z" />
<glyph unicode="&#x117;" glyph-name="edotaccent" horiz-adv-x="547" d="M304 -10Q167 -10 101 54T34 248V300Q34 363 52 411T102 492T181 541T283 558Q405 558 461 495T518 300V229H186Q188 192 198 169T227 132T274 113T340 108Q390 108 428 117T499 139V36Q470
20 423 5T304 -10ZM282 452Q263 452 246 447T215 428T193 390T183 326H373Q373 363 367 387T349 426T320 446T282 452ZM200 768H352V636H200V768Z" />
<glyph unicode="&#x118;" glyph-name="Eogonek" horiz-adv-x="584" d="M427 -213Q361 -213 333 -187T304 -120Q304 -99 312 -81T334 -48T365 -21T400 0H477Q422 -48 422 -93Q422 -113 435 -122T468 -131Q478 -131 492 -129T511 -125V-196Q500 -202 477 -207T427
-213ZM72 721H529V590H231V432H464V306H231V131H538V0H72V721Z" />
<glyph unicode="&#x119;" glyph-name="eogonek" horiz-adv-x="547" d="M366 -213Q300 -213 271 -187T242 -120Q242 -83 266 -56T320 -10H302Q165 -10 99 54T32 248V300Q32 363 50 411T100 492T179 541T281 558Q403 558 459 495T516 300V229H184Q186 192 196 169T225
132T272 113T338 108Q388 108 426 117T497 139V36Q478 25 461 18T427 4Q398 -10 379 -36T360 -93Q360 -113 373 -122T406 -131Q417 -131 431 -129T450 -125V-196Q439 -202 416 -207T366 -213ZM280 452Q261 452 244 447T213 428T191 390T181 326H371Q371 363 365
387T347 426T318 446T280 452Z" />
<glyph unicode="&#x11a;" glyph-name="Ecaron" horiz-adv-x="584" d="M72 721H529V590H231V432H464V306H231V131H538V0H72V721ZM365 788H244L117 957H227L305 887L383 957H492L365 788Z" />
<glyph unicode="&#x11b;" glyph-name="ecaron" horiz-adv-x="547" d="M304 -10Q167 -10 101 54T34 248V300Q34 363 52 411T102 492T181 541T283 558Q405 558 461 495T518 300V229H186Q188 192 198 169T227 132T274 113T340 108Q390 108 428 117T499 139V36Q470
20 423 5T304 -10ZM282 452Q263 452 246 447T215 428T193 390T183 326H373Q373 363 367 387T349 426T320 446T282 452ZM338 621H217L92 806H200L278 720L356 806H464L338 621Z" />
<glyph unicode="&#x11c;" glyph-name="Gcircumflex" horiz-adv-x="674" d="M382 -11Q302 -11 240 6T133 63T66 167T43 324V393Q43 492 70 557T145 662T254 717T385 733Q457 733 507 722T588 695V563Q558 574 514 585T401 596Q344 596 308 582T250 543T221 481T213
401V322Q213 274 219 235T243 168T293 125T379 110Q404 110 428 114T467 124V263H358V384H620V34Q580 14 517 2T382 -11ZM294 957H415L542 788H433L355 858L277 788H167L294 957Z" />
<glyph unicode="&#x11d;" glyph-name="gcircumflex" horiz-adv-x="592" d="M270 -216Q208 -216 156 -205T69 -176V-68Q81 -73 99 -78T140 -87T186 -94T234 -97Q314 -97 350 -74T387 9V67H382Q357 42 322 30T239 17Q200 17 164 28T99 68T54 142T37 256V297Q37 370
54 420T101 500T173 544T264 558Q314 558 346 544T399 516H404L413 548H537V-5Q537 -64 519 -104T467 -169T383 -205T270 -216ZM297 128Q330 128 351 137T387 156V419Q374 429 350 436T300 444Q274 444 254 439T219 418T198 377T191 310V264Q191 221 198 195T219
153T252 133T297 128ZM236 806H357L484 621H375L297 706L219 621H109L236 806Z" />
<glyph unicode="&#x11e;" glyph-name="Gbreve" horiz-adv-x="674" d="M382 -11Q302 -11 240 6T133 63T66 167T43 324V393Q43 492 70 557T145 662T254 717T385 733Q457 733 507 722T588 695V563Q558 574 514 585T401 596Q344 596 308 582T250 543T221 481T213 401V322Q213
274 219 235T243 168T293 125T379 110Q404 110 428 114T467 124V263H358V384H620V34Q580 14 517 2T382 -11ZM356 781Q279 781 235 826T186 949H290Q293 918 310 902T356 885Q383 885 401 901T423 949H527Q524 871 479 826T356 781Z" />
<glyph unicode="&#x11f;" glyph-name="gbreve" horiz-adv-x="592" d="M270 -216Q208 -216 156 -205T69 -176V-68Q81 -73 99 -78T140 -87T186 -94T234 -97Q314 -97 350 -74T387 9V67H382Q357 42 322 30T239 17Q200 17 164 28T99 68T54 142T37 256V297Q37 370 54
420T101 500T173 544T264 558Q314 558 346 544T399 516H404L413 548H537V-5Q537 -64 519 -104T467 -169T383 -205T270 -216ZM297 128Q330 128 351 137T387 156V419Q374 429 350 436T300 444Q274 444 254 439T219 418T198 377T191 310V264Q191 221 198 195T219 153T252
133T297 128ZM292 616Q257 616 227 627T174 661T138 717T123 794H226Q230 754 248 738T292 721Q318 721 336 737T358 794H461Q459 706 411 661T292 616Z" />
<glyph unicode="&#x120;" glyph-name="Gdotaccent" horiz-adv-x="674" d="M382 -11Q302 -11 240 6T133 63T66 167T43 324V393Q43 492 70 557T145 662T254 717T385 733Q457 733 507 722T588 695V563Q558 574 514 585T401 596Q344 596 308 582T250 543T221 481T213
401V322Q213 274 219 235T243 168T293 125T379 110Q404 110 428 114T467 124V263H358V384H620V34Q580 14 517 2T382 -11ZM278 921H432V794H278V921Z" />
<glyph unicode="&#x121;" glyph-name="gdotaccent" horiz-adv-x="592" d="M270 -216Q208 -216 156 -205T69 -176V-68Q81 -73 99 -78T140 -87T186 -94T234 -97Q314 -97 350 -74T387 9V67H382Q357 42 322 30T239 17Q200 17 164 28T99 68T54 142T37 256V297Q37 370
54 420T101 500T173 544T264 558Q314 558 346 544T399 516H404L413 548H537V-5Q537 -64 519 -104T467 -169T383 -205T270 -216ZM297 128Q330 128 351 137T387 156V419Q374 429 350 436T300 444Q274 444 254 439T219 418T198 377T191 310V264Q191 221 198 195T219
153T252 133T297 128ZM212 768H364V636H212V768Z" />
<glyph unicode="&#x122;" glyph-name="Gcommaaccent" horiz-adv-x="674" d="M289 -67H433L394 -242H284L289 -67ZM382 -11Q302 -11 240 6T133 63T66 167T43 324V393Q43 492 70 557T145 662T254 717T385 733Q457 733 507 722T588 695V563Q558 574 514 585T401 596Q344
596 308 582T250 543T221 481T213 401V322Q213 274 219 235T243 168T293 125T379 110Q404 110 428 114T467 124V263H358V384H620V34Q580 14 517 2T382 -11Z" />
<glyph unicode="&#x123;" glyph-name="gcommaaccent" horiz-adv-x="592" d="M270 -216Q208 -216 156 -205T69 -176V-68Q81 -73 99 -78T140 -87T186 -94T234 -97Q314 -97 350 -74T387 9V67H382Q357 42 322 30T239 17Q200 17 164 28T99 68T54 142T37 256V297Q37
370 54 420T101 500T173 544T264 558Q314 558 346 544T399 516H404L413 548H537V-5Q537 -64 519 -104T467 -169T383 -205T270 -216ZM297 128Q330 128 351 137T387 156V419Q374 429 350 436T300 444Q274 444 254 439T219 418T198 377T191 310V264Q191 221 198 195T219
153T252 133T297 128ZM360 621H217L256 796H365L360 621Z" />
<glyph unicode="&#x124;" glyph-name="Hcircumflex" horiz-adv-x="717" d="M72 721H234V437H488V721H649V0H488V305H234V0H72V721ZM299 957H420L547 788H438L360 858L282 788H172L299 957Z" />
<glyph unicode="&#x125;" glyph-name="hcircumflex" horiz-adv-x="583" d="M59 769H208V488H213Q243 520 285 539T377 558Q452 558 491 523T531 408V0H381V366Q381 403 365 418T305 433Q280 433 254 427T208 410V0H59V769ZM237 993H358L485 824H376L298 894L220
824H110L237 993Z" />
<glyph unicode="&#x126;" glyph-name="Hbar" horiz-adv-x="732" d="M749 524H-17V625H749V524ZM80 721H242V437H496V721H657V0H496V305H242V0H80V721Z" />
<glyph unicode="&#x127;" glyph-name="hbar" horiz-adv-x="583" d="M356 621H-3V707H356V621ZM59 769H208V488H213Q243 520 285 539T377 558Q452 558 491 523T531 408V0H381V366Q381 403 365 418T305 433Q280 433 254 427T208 410V0H59V769Z" />
<glyph unicode="&#x128;" glyph-name="Itilde" horiz-adv-x="302" d="M72 721H234V0H72V721ZM222 790Q225 829 236 857T264 903T302 930T344 939Q363 939 381 933T414 920T443 907T468 901Q499 901 505 939H598Q595 900 584 872T556 826T518 799T476 790Q456 790
439 796T407 809T378 822T353 828Q321 828 315 790H222V790Z" />
<glyph unicode="&#x129;" glyph-name="itilde" horiz-adv-x="265" d="M60 548H209V0H60V548ZM204 627Q207 666 218 693T246 738T283 764T325 773Q345 773 362 767T395 754T423 741T448 735Q463 735 472 745T485 773H578Q575 734 564 707T536 662T498 636T456 627Q436
627 419 633T387 646T359 659T334 665Q303 665 297 627H204V627Z" />
<glyph unicode="&#x12a;" glyph-name="Imacron" horiz-adv-x="302" d="M72 721H234V0H72V721ZM242 908H578V805H242V908Z" />
<glyph unicode="&#x12b;" glyph-name="imacron" horiz-adv-x="265" d="M-7 752H272V645H-7V752ZM60 548H209V0H60V548Z" />
<glyph unicode="&#x12c;" glyph-name="Ibreve" horiz-adv-x="302" d="M72 721H234V0H72V721ZM410 781Q333 781 289 826T240 949H344Q347 918 364 902T410 885Q437 885 455 901T477 949H581Q578 871 533 826T410 781Z" />
<glyph unicode="&#x12d;" glyph-name="ibreve" horiz-adv-x="265" d="M60 548H209V0H60V548ZM392 616Q357 616 327 627T274 661T238 717T223 794H326Q330 754 348 738T392 721Q418 721 436 737T458 794H561Q559 706 511 661T392 616Z" />
<glyph unicode="&#x12e;" glyph-name="Iogonek" horiz-adv-x="302" d="M70 0V721H232V9Q197 -20 182 -45T167 -93Q167 -113 180 -122T213 -131Q223 -131 237 -129T256 -125V-196Q245 -202 222 -207T172 -213Q106 -213 78 -187T49 -120Q49 -99 57 -81T79 -48T110
-21T145 0H70Z" />
<glyph unicode="&#x12f;" glyph-name="iogonek" horiz-adv-x="265" d="M58 0V548H207V7Q173 -19 158 -44T143 -93Q143 -113 156 -122T189 -131Q199 -131 213 -129T232 -125V-196Q221 -202 198 -207T148 -213Q82 -213 54 -187T25 -120Q25 -99 33 -81T55 -48T86
-21T121 0H58ZM57 763H208V631H57V763Z" />
<glyph unicode="&#x130;" glyph-name="Idotaccent" horiz-adv-x="302" d="M72 721H234V0H72V721ZM333 921H487V794H333V921Z" />
<glyph unicode="&#x131;" glyph-name="dotlessi" horiz-adv-x="265" d="M58 548H207V0H58V548Z" />
<glyph unicode="&#x132;" glyph-name="IJ" horiz-adv-x="749" d="M479 -7Q428 -7 396 1T338 23V142Q357 135 378 131T425 127Q472 127 498 148T524 221V722H685V200Q685 155 672 117T634 52T570 9T479 -7ZM71 721H233V0H71V721Z" />
<glyph unicode="&#x133;" glyph-name="ij" horiz-adv-x="526" d="M296 -206Q267 -206 246 -202T210 -189V-88Q220 -90 229 -91T249 -92Q281 -92 299 -76T318 -22V548H468V-35Q468 -73 459 -104T429 -158T375 -193T296 -206ZM57 763H208V631H57V763ZM58 548H207V0H58V548ZM318
763H469V631H318V763Z" />
<glyph unicode="&#x134;" glyph-name="Jcircumflex" horiz-adv-x="461" d="M183 -8Q129 -8 95 1T34 24V143Q54 136 79 131T133 126Q183 126 210 148T237 222V721H399V201Q399 156 386 118T346 51T279 8T183 -8ZM259 957H380L507 788H398L320 858L242 788H132L259 957Z" />
<glyph unicode="&#x135;" glyph-name="jcircumflex" horiz-adv-x="265" d="M35 -206Q-26 -206 -58 -187V-87Q-47 -89 -37 -90T-13 -92Q22 -92 41 -76T60 -22V548H209V-35Q209 -73 200 -104T169 -158T115 -193T35 -206ZM330 806H451L578 621H469L391 706L313 621H203L330
806Z" />
<glyph unicode="&#x136;" glyph-name="Kcommaaccent" horiz-adv-x="662" d="M262 -67H406L367 -242H257L262 -67ZM250 364L469 721H636L416 378L651 0H475L250 364ZM72 721H235V0H72V721Z" />
<glyph unicode="&#x137;" glyph-name="kcommaaccent" horiz-adv-x="547" d="M202 -67H346L307 -242H197L202 -67ZM59 769H208V0H59V769ZM220 286L370 548H527L367 295L538 0H376L220 286Z" />
<glyph unicode="&#x139;" glyph-name="Lacute" horiz-adv-x="539" d="M72 721H235V131H511V0H72V721ZM467 788H341L410 950H568L467 788Z" />
<glyph unicode="&#x13a;" glyph-name="lacute" horiz-adv-x="310" d="M198 -8Q130 -8 95 23T59 130V769H208V154Q208 127 219 116T257 105Q268 105 278 106T296 110V13Q283 5 258 -1T198 -8ZM454 824H328L397 986H555L454 824Z" />
<glyph unicode="&#x13b;" glyph-name="Lcommaaccent" horiz-adv-x="539" d="M221 -67H365L326 -242H216L221 -67ZM72 721H235V131H511V0H72V721Z" />
<glyph unicode="&#x13c;" glyph-name="lcommaaccent" horiz-adv-x="310" d="M362 -67H506L467 -242H357L362 -67ZM198 -8Q130 -8 95 23T59 130V769H208V154Q208 127 219 116T257 105Q268 105 278 106T296 110V13Q283 5 258 -1T198 -8Z" />
<glyph unicode="&#x13d;" glyph-name="Lcaron" horiz-adv-x="539" d="M72 721H235V131H511V0H72V721ZM305 978H437L406 807H301L305 978Z" />
<glyph unicode="&#x13e;" glyph-name="lcaron" horiz-adv-x="310" d="M198 -8Q130 -8 95 23T59 130V769H208V154Q208 127 219 116T257 105Q268 105 278 106T296 110V13Q283 5 258 -1T198 -8ZM263 769H395L364 598H259L263 769Z" />
<glyph unicode="&#x13f;" glyph-name="Ldot" horiz-adv-x="542" d="M72 721H235V131H511V0H72V721Z" />
<glyph unicode="&#x140;" glyph-name="ldot" horiz-adv-x="430" d="M198 -8Q130 -8 95 23T59 130V769H208V154Q208 127 219 116T257 105Q268 105 278 106T296 110V13Q283 5 258 -1T198 -8Z" />
<glyph unicode="&#x141;" glyph-name="Lslash" horiz-adv-x="546" d="M11 334L79 360V721H242V424L426 496V372L242 300V131H518V0H79V236L11 210V334Z" />
<glyph unicode="&#x142;" glyph-name="lslash" horiz-adv-x="310" d="M198 -8Q130 -8 95 23T59 130V301L-3 269V391L59 423V769H208V500L290 543V421L208 378V154Q208 127 219 116T257 105Q268 105 278 106T296 110V13Q283 5 258 -1T198 -8Z" />
<glyph unicode="&#x143;" glyph-name="Nacute" horiz-adv-x="713" d="M72 721H251L391 477Q410 443 430 399T469 314Q489 266 510 218H513Q509 271 506 321Q504 364 502 411T500 494V721H645V0H488L326 285Q307 317 286 363T248 451Q227 500 207 551H203Q206 496
210 442Q212 396 214 346T217 260V0H72V721ZM422 788H296L365 950H523L422 788Z" />
<glyph unicode="&#x144;" glyph-name="nacute" horiz-adv-x="584" d="M60 548H204V484H209Q242 519 285 538T378 558Q452 558 491 523T531 408V0H382V366Q382 403 366 418T306 433Q281 433 255 427T209 410V0H60V548ZM310 791H469L360 621H234L310 791Z" />
<glyph unicode="&#x145;" glyph-name="Ncommaaccent" horiz-adv-x="713" d="M292 -67H436L397 -242H287L292 -67ZM72 721H251L391 477Q410 443 430 399T469 314Q489 266 510 218H513Q509 271 506 321Q504 364 502 411T500 494V721H645V0H488L326 285Q307 317 286
363T248 451Q227 500 207 551H203Q206 496 210 442Q212 396 214 346T217 260V0H72V721Z" />
<glyph unicode="&#x146;" glyph-name="ncommaaccent" horiz-adv-x="584" d="M222 -67H366L327 -242H217L222 -67ZM60 548H204V484H209Q242 519 285 538T378 558Q452 558 491 523T531 408V0H382V366Q382 403 366 418T306 433Q281 433 255 427T209 410V0H60V548Z" />
<glyph unicode="&#x147;" glyph-name="Ncaron" horiz-adv-x="713" d="M72 721H251L391 477Q410 443 430 399T469 314Q489 266 510 218H513Q509 271 506 321Q504 364 502 411T500 494V721H645V0H488L326 285Q307 317 286 363T248 451Q227 500 207 551H203Q206 496
210 442Q212 396 214 346T217 260V0H72V721ZM427 788H306L179 957H289L367 887L445 957H554L427 788Z" />
<glyph unicode="&#x148;" glyph-name="ncaron" horiz-adv-x="584" d="M60 548H204V484H209Q242 519 285 538T378 558Q452 558 491 523T531 408V0H382V366Q382 403 366 418T306 433Q281 433 255 427T209 410V0H60V548ZM355 621H234L109 806H217L295 720L373 806H481L355
621Z" />
<glyph unicode="&#x149;" glyph-name="napostrophe" horiz-adv-x="644" d="M120 548H264V484H269Q302 519 345 538T438 558Q512 558 551 523T591 408V0H442V366Q442 403 426 418T366 433Q341 433 315 427T269 410V0H120V548ZM209 721H357L309 470H192L209 721Z" />
<glyph unicode="&#x14a;" glyph-name="Eng" horiz-adv-x="712" d="M427 -206Q382 -206 353 -199T300 -179V-61Q318 -66 337 -69T382 -72Q425 -72 451 -55T482 3V7L324 285Q305 317 284 363T246 451Q225 500 205 551H201Q204 496 208 442Q210 396 212 346T215 260V0H70V721H249L389
477Q408 443 428 399T467 314Q487 266 508 218H511Q507 271 504 321Q502 364 500 411T498 494V721H643V-8Q643 -49 630 -85T589 -148T522 -190T427 -206Z" />
<glyph unicode="&#x14b;" glyph-name="eng" horiz-adv-x="584" d="M355 -206Q294 -206 262 -187V-87Q273 -89 283 -90T307 -92Q342 -92 361 -76T380 -22V366Q380 403 364 418T304 433Q279 433 253 427T207 410V0H58V548H202V484H207Q240 519 283 538T376 558Q450
558 489 523T529 408V-35Q529 -73 520 -104T489 -158T435 -193T355 -206Z" />
<glyph unicode="&#x14c;" glyph-name="Omacron" horiz-adv-x="718" d="M360 -12Q291 -12 233 7T133 67T67 171T43 324V395Q43 484 68 548T136 653T237 713T364 733Q433 733 491 714T590 655T655 550T679 397V326Q679 237 655 174T587 69T486 8T360 -12ZM362 111Q437
111 473 161T509 314V397Q509 509 476 559T360 609Q285 609 250 560T214 410V326Q214 212 248 162T362 111ZM193 908H529V805H193V908Z" />
<glyph unicode="&#x14d;" glyph-name="omacron" horiz-adv-x="578" d="M291 -10Q166 -10 101 55T35 246V296Q35 361 54 410T108 492T189 541T292 558Q417 558 482 493T547 302V252Q547 186 528 137T475 56T394 7T291 -10ZM293 100Q317 100 336 107T368 131T387
175T394 242V299Q394 346 387 375T365 420T332 441T291 447Q241 447 215 415T188 304V247Q188 201 196 172T218 127T251 106T293 100ZM140 752H441V645H140V752Z" />
<glyph unicode="&#x14e;" glyph-name="Obreve" horiz-adv-x="718" d="M360 -12Q291 -12 233 7T133 67T67 171T43 324V395Q43 484 68 548T136 653T237 713T364 733Q433 733 491 714T590 655T655 550T679 397V326Q679 237 655 174T587 69T486 8T360 -12ZM362 111Q437
111 473 161T509 314V397Q509 509 476 559T360 609Q285 609 250 560T214 410V326Q214 212 248 162T362 111ZM361 781Q284 781 240 826T191 949H295Q298 918 315 902T361 885Q388 885 406 901T428 949H532Q529 871 484 826T361 781Z" />
<glyph unicode="&#x14f;" glyph-name="obreve" horiz-adv-x="578" d="M291 -10Q166 -10 101 55T35 246V296Q35 361 54 410T108 492T189 541T292 558Q417 558 482 493T547 302V252Q547 186 528 137T475 56T394 7T291 -10ZM293 100Q317 100 336 107T368 131T387
175T394 242V299Q394 346 387 375T365 420T332 441T291 447Q241 447 215 415T188 304V247Q188 201 196 172T218 127T251 106T293 100ZM291 616Q256 616 226 627T173 661T137 717T122 794H225Q229 754 247 738T291 721Q317 721 335 737T357 794H460Q458 706 410
661T291 616Z" />
<glyph unicode="&#x150;" glyph-name="Ohungarumlaut" horiz-adv-x="718" d="M360 -12Q291 -12 233 7T133 67T67 171T43 324V395Q43 484 68 548T136 653T237 713T364 733Q433 733 491 714T590 655T655 550T679 397V326Q679 237 655 174T587 69T486 8T360 -12ZM362
111Q437 111 473 161T509 314V397Q509 509 476 559T360 609Q285 609 250 560T214 410V326Q214 212 248 162T362 111ZM450 1201H582L500 1043H399L450 1201ZM269 1201H401L319 1043H217L269 1201Z" />
<glyph unicode="&#x151;" glyph-name="ohungarumlaut" horiz-adv-x="578" d="M291 -10Q166 -10 101 55T35 246V296Q35 361 54 410T108 492T189 541T292 558Q417 558 482 493T547 302V252Q547 186 528 137T475 56T394 7T291 -10ZM293 100Q317 100 336 107T368 131T387
175T394 242V299Q394 346 387 375T365 420T332 441T291 447Q241 447 215 415T188 304V247Q188 201 196 172T218 127T251 106T293 100ZM376 793H510L440 621H331L376 793ZM182 793H317L245 621H136L182 793Z" />
<glyph unicode="&#x152;" glyph-name="OE" horiz-adv-x="964" d="M376 0Q296 0 234 17T128 72T63 172T41 321V387Q41 559 126 640T375 721H908V590H616V432H843V306H616V131H916V0H376ZM456 129V592H377Q334 592 303 583T252 552T222 492T212 398V319Q212 261
223 224T256 166T309 137T383 129H456Z" />
<glyph unicode="&#x153;" glyph-name="oe" horiz-adv-x="916" d="M670 -10Q593 -10 545 12T469 76Q414 -10 290 -10Q164 -10 99 55T33 246V296Q33 361 52 410T106 492T187 541T290 558Q358 558 403 537T474 476Q500 516 543 537T648 558Q771 558 828 495T885 300V229H549Q551
192 561 169T591 132T639 113T706 108Q756 108 794 117T865 139V36Q836 20 789 5T670 -10ZM293 100Q317 100 336 107T369 131T389 175T396 242V299Q396 346 388 375T366 420T333 441T291 447Q241 447 214 415T186 304V247Q186 201 194 172T217 127T250 106T293
100ZM647 452Q628 452 611 447T579 428T556 390T545 326H739Q739 363 733 387T714 426T685 446T647 452Z" />
<glyph unicode="&#x154;" glyph-name="Racute" horiz-adv-x="645" d="M72 721H341Q467 721 528 668T590 502Q590 425 560 383T466 318V314L636 0H465L322 271H234V0H72V721ZM323 384Q381 384 404 410T428 494Q428 551 405 575T321 600H232V384H323ZM378 788H252L321
950H479L378 788Z" />
<glyph unicode="&#x155;" glyph-name="racute" horiz-adv-x="398" d="M58 548H202V464H208Q233 508 270 531T348 555Q359 555 367 554T380 550V410Q371 412 359 413T337 414Q302 414 267 407T208 386V0H58V548ZM485 791H644L535 621H409L485 791Z" />
<glyph unicode="&#x156;" glyph-name="Rcommaaccent" horiz-adv-x="645" d="M258 -67H402L363 -242H253L258 -67ZM72 721H341Q467 721 528 668T590 502Q590 425 560 383T466 318V314L636 0H465L322 271H234V0H72V721ZM323 384Q381 384 404 410T428 494Q428 551
405 575T321 600H232V384H323Z" />
<glyph unicode="&#x157;" glyph-name="rcommaaccent" horiz-adv-x="398" d="M317 -67H461L422 -242H312L317 -67ZM58 548H202V464H208Q233 508 270 531T348 555Q359 555 367 554T380 550V410Q371 412 359 413T337 414Q302 414 267 407T208 386V0H58V548Z" />
<glyph unicode="&#x158;" glyph-name="Rcaron" horiz-adv-x="645" d="M72 721H341Q467 721 528 668T590 502Q590 425 560 383T466 318V314L636 0H465L322 271H234V0H72V721ZM323 384Q381 384 404 410T428 494Q428 551 405 575T321 600H232V384H323ZM376 788H255L128
957H238L316 887L394 957H503L376 788Z" />
<glyph unicode="&#x159;" glyph-name="rcaron" horiz-adv-x="398" d="M58 548H202V464H208Q233 508 270 531T348 555Q359 555 367 554T380 550V410Q371 412 359 413T337 414Q302 414 267 407T208 386V0H58V548ZM546 621H425L300 806H408L486 720L564 806H672L546 621Z" />
<glyph unicode="&#x15a;" glyph-name="Sacute" horiz-adv-x="548" d="M254 -13Q183 -13 128 -1T38 32V163Q82 145 130 133T238 120Q300 120 327 141T355 202Q355 220 351 233T337 256T310 273T266 288L203 306Q162 317 131 333T80 374T49 434T38 518Q38 566 52
606T97 674T173 717T282 733Q357 733 400 722T473 696V565Q439 579 395 589T293 600Q192 600 192 528Q192 496 208 479T271 448L336 429Q379 417 412 402T468 362T503 303T515 218Q515 106 450 47T254 -13ZM337 788H211L280 950H438L337 788Z" />
<glyph unicode="&#x15b;" glyph-name="sacute" horiz-adv-x="462" d="M216 -10Q100 -10 36 24V138Q69 125 104 116T194 106Q223 106 241 109T271 120T286 136T290 158Q290 180 278 191T226 210L177 219Q112 232 74 270T35 383Q35 466 85 512T241 558Q299 558 336
551T403 532V420Q378 429 342 436T259 443Q210 443 192 430T173 394Q173 373 186 363T235 345L283 336Q365 320 399 282T434 169Q434 81 380 36T216 -10ZM499 791H658L549 621H423L499 791Z" />
<glyph unicode="&#x15c;" glyph-name="Scircumflex" horiz-adv-x="548" d="M254 -13Q183 -13 128 -1T38 32V163Q82 145 130 133T238 120Q300 120 327 141T355 202Q355 220 351 233T337 256T310 273T266 288L203 306Q162 317 131 333T80 374T49 434T38 518Q38 566
52 606T97 674T173 717T282 733Q357 733 400 722T473 696V565Q439 579 395 589T293 600Q192 600 192 528Q192 496 208 479T271 448L336 429Q379 417 412 402T468 362T503 303T515 218Q515 106 450 47T254 -13ZM213 957H334L461 788H352L274 858L196 788H86L213
957Z" />
<glyph unicode="&#x15d;" glyph-name="scircumflex" horiz-adv-x="462" d="M216 -10Q100 -10 36 24V138Q69 125 104 116T194 106Q223 106 241 109T271 120T286 136T290 158Q290 180 278 191T226 210L177 219Q112 232 74 270T35 383Q35 466 85 512T241 558Q299
558 336 551T403 532V420Q378 429 342 436T259 443Q210 443 192 430T173 394Q173 373 186 363T235 345L283 336Q365 320 399 282T434 169Q434 81 380 36T216 -10ZM430 806H551L678 621H569L491 706L413 621H303L430 806Z" />
<glyph unicode="&#x15e;" glyph-name="Scedilla" horiz-adv-x="548" d="M254 -13Q183 -13 128 -1T38 32V163Q82 145 130 133T238 120Q300 120 327 141T355 202Q355 220 351 233T337 256T310 273T266 288L203 306Q162 317 131 333T80 374T49 434T38 518Q38 566
52 606T97 674T173 717T282 733Q357 733 400 722T473 696V565Q439 579 395 589T293 600Q192 600 192 528Q192 496 208 479T271 448L336 429Q379 417 412 402T468 362T503 303T515 218Q515 106 450 47T254 -13ZM165 -184Q199 -181 221 -177T257 -168T275 -156T280
-139Q280 -122 263 -116T202 -107V0H282V-50Q339 -54 364 -76T390 -137Q390 -161 379 -180T342 -215T273 -239T165 -251V-184Z" />
<glyph unicode="&#x15f;" glyph-name="scedilla" horiz-adv-x="462" d="M216 -10Q100 -10 36 24V138Q69 125 104 116T194 106Q223 106 241 109T271 120T286 136T290 158Q290 180 278 191T226 210L177 219Q112 232 74 270T35 383Q35 466 85 512T241 558Q299 558
336 551T403 532V420Q378 429 342 436T259 443Q210 443 192 430T173 394Q173 373 186 363T235 345L283 336Q365 320 399 282T434 169Q434 81 380 36T216 -10ZM372 -183Q406 -180 428 -176T464 -167T482 -155T487 -138Q487 -121 470 -115T409 -106V1H489V-49Q546
-53 571 -75T597 -136Q597 -160 586 -179T549 -214T480 -238T372 -250V-183Z" />
<glyph unicode="&#x160;" glyph-name="Scaron" horiz-adv-x="548" d="M254 -13Q183 -13 128 -1T38 32V163Q82 145 130 133T238 120Q300 120 327 141T355 202Q355 220 351 233T337 256T310 273T266 288L203 306Q162 317 131 333T80 374T49 434T38 518Q38 566 52
606T97 674T173 717T282 733Q357 733 400 722T473 696V565Q439 579 395 589T293 600Q192 600 192 528Q192 496 208 479T271 448L336 429Q379 417 412 402T468 362T503 303T515 218Q515 106 450 47T254 -13ZM334 788H213L86 957H196L274 887L352 957H461L334 788Z"
/>
<glyph unicode="&#x161;" glyph-name="scaron" horiz-adv-x="462" d="M216 -10Q100 -10 36 24V138Q69 125 104 116T194 106Q223 106 241 109T271 120T286 136T290 158Q290 180 278 191T226 210L177 219Q112 232 74 270T35 383Q35 466 85 512T241 558Q299 558 336
551T403 532V420Q378 429 342 436T259 443Q210 443 192 430T173 394Q173 373 186 363T235 345L283 336Q365 320 399 282T434 169Q434 81 380 36T216 -10ZM551 621H430L305 806H413L491 720L569 806H677L551 621Z" />
<glyph unicode="&#x162;" glyph-name="Tcommaaccent" horiz-adv-x="587" d="M222 -67H366L327 -242H217L222 -67ZM214 590H27V721H564V590H375V0H214V590Z" />
<glyph unicode="&#x163;" glyph-name="tcommaaccent" horiz-adv-x="406" d="M418 -67H562L523 -242H413L418 -67ZM260 -8Q222 -8 193 -1T143 23T112 68T101 140V434H23V548H101V678H250V548H372V434H250V163Q250 131 265 120T315 109Q329 109 346 111T377 118V17Q360
8 330 0T260 -8Z" />
<glyph unicode="&#x164;" glyph-name="Tcaron" horiz-adv-x="587" d="M214 590H27V721H564V590H375V0H214V590ZM356 788H235L108 957H218L296 887L374 957H483L356 788Z" />
<glyph unicode="&#x165;" glyph-name="tcaron" horiz-adv-x="406" d="M260 -8Q222 -8 193 -1T143 23T112 68T101 140V434H23V548H101V678H250V548H372V434H250V163Q250 131 265 120T315 109Q329 109 346 111T377 118V17Q360 8 330 0T260 -8ZM308 769H440L409 598H304L308
769Z" />
<glyph unicode="&#x166;" glyph-name="Tbar" horiz-adv-x="587" d="M517 364H69V464H517V364ZM214 590H27V721H564V590H375V0H214V590Z" />
<glyph unicode="&#x167;" glyph-name="tbar" horiz-adv-x="406" d="M370 370V276H21V370H370ZM260 -8Q222 -8 193 -1T143 23T112 68T101 140V434H23V548H101V678H250V548H372V434H250V163Q250 131 265 120T315 109Q329 109 346 111T377 118V17Q360 8 330 0T260 -8Z" />
<glyph unicode="&#x168;" glyph-name="Utilde" horiz-adv-x="695" d="M354 -13Q211 -13 139 49T67 241V721H230V248Q230 171 262 143T359 114Q392 114 415 120T455 142T478 184T486 249V721H632V243Q632 112 565 50T354 -13ZM168 790Q171 829 182 857T210 903T248
930T290 939Q309 939 327 933T360 920T389 907T414 901Q445 901 451 939H544Q541 900 530 872T502 826T464 799T422 790Q402 790 385 796T353 809T324 822T299 828Q267 828 261 790H168V790Z" />
<glyph unicode="&#x169;" glyph-name="utilde" horiz-adv-x="577" d="M212 -11Q137 -11 97 28T57 148V548H206V183Q206 145 220 128T276 110Q303 110 327 119T371 138V548H521V0H391L380 64H375Q340 29 301 9T212 -11ZM106 627Q109 666 120 693T148 738T185 764T227
773Q247 773 264 767T297 754T325 741T350 735Q365 735 374 745T387 773H480Q477 734 466 707T438 662T400 636T358 627Q338 627 321 633T289 646T261 659T236 665Q205 665 199 627H106V627Z" />
<glyph unicode="&#x16a;" glyph-name="Umacron" horiz-adv-x="695" d="M354 -13Q211 -13 139 49T67 241V721H230V248Q230 171 262 143T359 114Q392 114 415 120T455 142T478 184T486 249V721H632V243Q632 112 565 50T354 -13ZM189 908H525V805H189V908Z" />
<glyph unicode="&#x16b;" glyph-name="umacron" horiz-adv-x="577" d="M212 -11Q137 -11 97 28T57 148V548H206V183Q206 145 220 128T276 110Q303 110 327 119T371 138V548H521V0H391L380 64H375Q340 29 301 9T212 -11ZM138 752H439V645H138V752Z" />
<glyph unicode="&#x16c;" glyph-name="Ubreve" horiz-adv-x="695" d="M354 -13Q211 -13 139 49T67 241V721H230V248Q230 171 262 143T359 114Q392 114 415 120T455 142T478 184T486 249V721H632V243Q632 112 565 50T354 -13ZM358 781Q281 781 237 826T188 949H292Q295
918 312 902T358 885Q385 885 403 901T425 949H529Q526 871 481 826T358 781Z" />
<glyph unicode="&#x16d;" glyph-name="ubreve" horiz-adv-x="577" d="M212 -11Q137 -11 97 28T57 148V548H206V183Q206 145 220 128T276 110Q303 110 327 119T371 138V548H521V0H391L380 64H375Q340 29 301 9T212 -11ZM291 616Q256 616 226 627T173 661T137 717T122
794H225Q229 754 247 738T291 721Q317 721 335 737T357 794H460Q458 706 410 661T291 616Z" />
<glyph unicode="&#x16e;" glyph-name="Uring" horiz-adv-x="695" d="M354 -13Q211 -13 139 49T67 241V721H230V248Q230 171 262 143T359 114Q392 114 415 120T455 142T478 184T486 249V721H632V243Q632 112 565 50T354 -13ZM360 1015Q333 1015 310 1024T270 1049T244
1087T234 1135Q234 1161 243 1183T270 1221T310 1247T360 1256Q387 1256 410 1247T450 1222T476 1183T486 1135Q486 1109 477 1087T450 1049T410 1024T360 1015ZM360 1086Q382 1086 395 1099T409 1135Q409 1158 396 1171T360 1185Q338 1185 325 1172T311 1135Q311
1112 324 1099T360 1086Z" />
<glyph unicode="&#x16f;" glyph-name="uring" horiz-adv-x="577" d="M212 -11Q137 -11 97 28T57 148V548H206V183Q206 145 220 128T276 110Q303 110 327 119T371 138V548H521V0H391L380 64H375Q340 29 301 9T212 -11ZM291 614Q264 614 241 623T201 648T175 686T165
734Q165 759 174 781T201 820T241 845T291 855Q318 855 341 846T381 820T407 782T417 734Q417 708 408 686T381 648T341 623T291 614ZM291 684Q313 684 326 697T340 734Q340 757 327 770T291 784Q269 784 256 771T242 734Q242 711 255 698T291 684Z" />
<glyph unicode="&#x170;" glyph-name="Uhungarumlaut" horiz-adv-x="695" d="M354 -13Q211 -13 139 49T67 241V721H230V248Q230 171 262 143T359 114Q392 114 415 120T455 142T478 184T486 249V721H632V243Q632 112 565 50T354 -13ZM446 946H578L496 788H395L446
946ZM265 946H397L315 788H213L265 946Z" />
<glyph unicode="&#x171;" glyph-name="uhungarumlaut" horiz-adv-x="577" d="M212 -11Q137 -11 97 28T57 148V548H206V183Q206 145 220 128T276 110Q303 110 327 119T371 138V548H521V0H391L380 64H375Q340 29 301 9T212 -11ZM377 793H511L441 621H332L377 793ZM183
793H318L246 621H137L183 793Z" />
<glyph unicode="&#x172;" glyph-name="Uogonek" horiz-adv-x="695" d="M410 -213Q344 -213 315 -187T286 -120Q286 -85 308 -58T360 -13H352Q209 -13 137 49T65 241V721H228V248Q228 171 260 143T357 114Q390 114 413 120T453 142T476 184T484 249V721H630V243Q630
191 620 153T592 86T551 40T500 12Q470 0 452 -13T423 -41T408 -68T404 -93Q404 -113 417 -122T450 -131Q461 -131 474 -129T494 -125V-196Q483 -202 460 -207T410 -213Z" />
<glyph unicode="&#x173;" glyph-name="uogonek" horiz-adv-x="577" d="M389 0L378 64H373Q338 29 299 9T210 -11Q135 -11 95 28T55 148V548H204V183Q204 145 218 128T274 110Q301 110 325 119T369 138V548H519V10Q452 -42 452 -93Q452 -113 465 -122T498 -131Q508
-131 522 -129T541 -125V-196Q530 -202 507 -207T457 -213Q391 -213 363 -187T334 -120Q334 -99 342 -81T364 -48T395 -21T430 0H389Z" />
<glyph unicode="&#x174;" glyph-name="Wcircumflex" horiz-adv-x="930" d="M17 721H179L237 452Q247 406 255 346T269 232Q276 169 282 103H285Q292 168 301 230Q309 284 318 343T338 449L403 721H547L612 449Q623 403 631 344T648 230Q656 168 664 103H667Q673
169 680 232Q686 286 694 346T713 452L772 721H915L747 0H583L513 299Q504 337 497 387T483 486Q476 541 470 599H467Q461 541 454 486Q448 438 440 388T423 299L349 0H186L17 721ZM412 957H533L660 788H551L473 858L395 788H285L412 957Z" />
<glyph unicode="&#x175;" glyph-name="wcircumflex" horiz-adv-x="786" d="M16 548H167L206 378Q213 346 220 299T233 207Q239 155 245 100H249Q255 154 262 206Q268 251 276 298T294 378L339 548H468L514 378Q522 346 530 299T546 207Q554 155 560 100H564Q570
154 576 206Q581 251 588 298T603 378L642 548H772L630 0H487L434 195Q426 225 419 267T407 348Q401 393 397 440H393Q388 393 383 348Q378 310 371 268T356 195L303 0H159L16 548ZM340 806H461L588 621H479L401 706L323 621H213L340 806Z" />
<glyph unicode="&#x176;" glyph-name="Ycircumflex" horiz-adv-x="624" d="M233 281L11 721H180L241 590Q255 559 269 522T295 453Q308 415 321 376H324Q335 415 348 453Q359 485 373 522T401 590L462 721H616L395 281V0H233V281ZM259 957H380L507 788H398L320
858L242 788H132L259 957Z" />
<glyph unicode="&#x177;" glyph-name="ycircumflex" horiz-adv-x="536" d="M125 -206Q100 -206 72 -202T30 -189V-85Q42 -87 57 -89T86 -91Q128 -91 150 -75T185 -26L199 12L6 548H162L218 376Q230 340 240 294T258 206Q267 158 274 108H277Q284 158 294 206Q302
248 312 294T334 376L387 548H531L329 -48Q315 -88 298 -118T256 -167T200 -196T125 -206ZM213 806H334L461 621H352L274 706L196 621H86L213 806Z" />
<glyph unicode="&#x178;" glyph-name="Ydieresis" horiz-adv-x="624" d="M233 281L11 721H180L241 590Q255 559 269 522T295 453Q308 415 321 376H324Q335 415 348 453Q359 485 373 522T401 590L462 721H616L395 281V0H233V281ZM357 918H500V793H357V918ZM139
918H282V793H139V918Z" />
<glyph unicode="&#x179;" glyph-name="Zacute" horiz-adv-x="582" d="M37 121L261 446Q277 469 297 494T337 541Q359 566 382 590V593H58V721H546V601L323 276Q306 253 286 227T246 180Q224 154 202 131V128H542V0H37V121ZM367 788H241L310 950H468L367 788Z" />
<glyph unicode="&#x17a;" glyph-name="zacute" horiz-adv-x="484" d="M31 110L192 322Q208 343 226 362T259 398Q277 416 294 432V435H41V548H455V446L290 226Q274 205 256 186T222 150Q204 132 185 115V112H453V0H31V110ZM510 791H669L560 621H434L510 791Z" />
<glyph unicode="&#x17b;" glyph-name="Zdotaccent" horiz-adv-x="582" d="M37 121L261 446Q277 469 297 494T337 541Q359 566 382 590V593H58V721H546V601L323 276Q306 253 286 227T246 180Q224 154 202 131V128H542V0H37V121ZM229 921H383V794H229V921Z" />
<glyph unicode="&#x17c;" glyph-name="zdotaccent" horiz-adv-x="484" d="M31 110L192 322Q208 343 226 362T259 398Q277 416 294 432V435H41V548H455V446L290 226Q274 205 256 186T222 150Q204 132 185 115V112H453V0H31V110ZM176 768H328V636H176V768Z" />
<glyph unicode="&#x17d;" glyph-name="Zcaron" horiz-adv-x="582" d="M37 121L261 446Q277 469 297 494T337 541Q359 566 382 590V593H58V721H546V601L323 276Q306 253 286 227T246 180Q224 154 202 131V128H542V0H37V121ZM367 788H246L119 957H229L307 887L385
957H494L367 788Z" />
<glyph unicode="&#x17e;" glyph-name="zcaron" horiz-adv-x="484" d="M31 110L192 322Q208 343 226 362T259 398Q277 416 294 432V435H41V548H455V446L290 226Q274 205 256 186T222 150Q204 132 185 115V112H453V0H31V110ZM312 621H191L66 806H174L252 720L330
806H438L312 621Z" />
<glyph unicode="&#x192;" glyph-name="florin" horiz-adv-x="463" d="M48 436H132L150 549Q158 600 176 635T219 691T277 723T348 733Q387 733 411 728T451 715V608Q437 611 425 613T396 615Q355 615 332 597T301 531L285 436H396V321H267L214 -13Q199 -107 151
-148T25 -190Q-9 -190 -32 -184T-67 -171V-67Q-58 -69 -47 -71T-21 -74Q11 -74 34 -58T63 -3L114 321H48V436Z" />
<glyph unicode="&#x1fa;" glyph-name="Aringacute" horiz-adv-x="680" d="M257 721H428L668 0H500L453 149H205L160 0H15L257 721ZM239 259H419L384 373Q373 409 364 451T347 532Q339 575 332 619H327Q320 576 311 532Q303 494 294 451T274 373L239 259ZM399 1034H273L342
1196H500L399 1034ZM340 1018Q313 1018 290 1027T250 1052T224 1090T214 1138Q214 1164 223 1186T250 1224T290 1250T340 1259Q367 1259 390 1250T430 1225T456 1186T466 1138Q466 1112 457 1090T430 1052T390 1027T340 1018ZM340 1089Q362 1089 375 1102T389 1138Q389
1161 376 1174T340 1188Q318 1188 305 1175T291 1138Q291 1115 304 1102T340 1089Z" />
<glyph unicode="&#x1fb;" glyph-name="aringacute" horiz-adv-x="521" d="M322 894H196L265 1056H423L322 894Z" />
<glyph unicode="&#x1fc;" glyph-name="AEacute" horiz-adv-x="951" d="M666 788H540L609 950H767L666 788ZM374 721H896V590H600V432H831V306H600V131H905V0H441V153H233L159 0H8L374 721ZM286 263H441V372Q441 409 441 453T444 536Q445 581 447 626H443Q428 584
411 542Q397 506 380 465T346 388L286 263Z" />
<glyph unicode="&#x1fd;" glyph-name="aeacute" horiz-adv-x="839" d="M439 791H598L489 621H363L439 791ZM200 -10Q122 -10 77 29T32 147Q32 188 44 217T80 265T137 295T213 312L325 326V360Q325 404 299 419T210 435Q171 435 136 430T75 419V527Q115 543 160
550T263 558Q318 558 356 544T416 496Q473 558 573 558Q696 558 752 495T809 300V230H477Q479 193 489 169T518 132T564 113T630 108Q681 108 719 117T790 139V36Q761 20 714 5T595 -10Q443 -10 377 73Q347 34 302 12T200 -10ZM345 131Q328 178 326 242L244 234Q209
231 194 213T178 158Q178 120 197 104T247 88Q276 88 300 99T345 131ZM573 452Q554 452 537 447T507 429T484 391T474 327H664Q664 364 658 388T640 426T611 446T573 452Z" />
<glyph unicode="&#x1fe;" glyph-name="Oslashacute" horiz-adv-x="718" d="M360 -12Q274 -12 203 22L149 -62H30L123 83Q85 125 64 184T43 324V395Q43 484 68 548T136 653T237 713T364 733Q451 733 521 698L563 762H682L601 637Q638 595 658 536T679 397V326Q679
237 655 174T587 69T486 8T360 -12ZM204 326Q204 263 213 221L453 592Q420 612 360 612Q283 612 244 562T204 410V326ZM362 108Q438 108 478 159T518 314V397Q518 453 510 496L271 127Q305 108 362 108ZM420 788H294L363 950H521L420 788Z" />
<glyph unicode="&#x1ff;" glyph-name="oslashacute" horiz-adv-x="578" d="M291 -10Q225 -10 173 13L124 -62H19L101 63Q69 96 52 142T35 246V296Q35 361 54 410T108 492T189 541T292 558Q358 558 413 533L450 590H555L484 482Q514 449 530 404T547 302V252Q547
186 528 137T475 56T394 7T291 -10ZM180 247Q180 230 181 216T185 189L350 438Q337 446 322 448T291 451Q241 451 211 418T180 304V247ZM293 97Q343 97 373 129T403 242V299Q403 315 402 328T399 354L236 108Q259 97 293 97ZM300 791H459L350 621H224L300 791Z"
/>
<glyph unicode="&#x218;" glyph-name="Scommaaccent" horiz-adv-x="548" d="M200 -67H344L305 -242H195L200 -67ZM254 -13Q183 -13 128 -1T38 32V163Q82 145 130 133T238 120Q300 120 327 141T355 202Q355 220 351 233T337 256T310 273T266 288L203 306Q162 317
131 333T80 374T49 434T38 518Q38 566 52 606T97 674T173 717T282 733Q357 733 400 722T473 696V565Q439 579 395 589T293 600Q192 600 192 528Q192 496 208 479T271 448L336 429Q379 417 412 402T468 362T503 303T515 218Q515 106 450 47T254 -13Z" />
<glyph unicode="&#x219;" glyph-name="scommaaccent" horiz-adv-x="462" d="M415 -67H559L520 -242H410L415 -67ZM216 -10Q100 -10 36 24V138Q69 125 104 116T194 106Q223 106 241 109T271 120T286 136T290 158Q290 180 278 191T226 210L177 219Q112 232 74 270T35
383Q35 466 85 512T241 558Q299 558 336 551T403 532V420Q378 429 342 436T259 443Q210 443 192 430T173 394Q173 373 186 363T235 345L283 336Q365 320 399 282T434 169Q434 81 380 36T216 -10Z" />
<glyph unicode="&#x21a;" glyph-name="uni021A" horiz-adv-x="587" d="M222 -67H366L327 -242H217L222 -67ZM214 590H27V721H564V590H375V0H214V590Z" />
<glyph unicode="&#x21b;" glyph-name="uni021B" horiz-adv-x="406" d="M418 -67H562L523 -242H413L418 -67ZM260 -8Q222 -8 193 -1T143 23T112 68T101 140V434H23V548H101V678H250V548H372V434H250V163Q250 131 265 120T315 109Q329 109 346 111T377 118V17Q360
8 330 0T260 -8Z" />
<glyph unicode="&#x237;" glyph-name="uni0237" horiz-adv-x="265" d="M33 -206Q-28 -206 -60 -187V-87Q-49 -89 -39 -90T-15 -92Q20 -92 39 -76T58 -22V548H207V-35Q207 -73 198 -104T167 -158T113 -193T33 -206Z" />
<glyph unicode="&#x2c6;" glyph-name="circumflex" horiz-adv-x="504" d="M191 806H312L439 621H330L252 706L174 621H64L191 806Z" />
<glyph unicode="&#x2c7;" glyph-name="caron" horiz-adv-x="504" d="M312 621H191L66 806H174L252 720L330 806H438L312 621Z" />
<glyph unicode="&#x2d8;" glyph-name="breve" horiz-adv-x="504" d="M252 616Q217 616 187 627T134 661T98 717T83 794H186Q190 754 208 738T252 721Q278 721 296 737T318 794H421Q419 706 371 661T252 616Z" />
<glyph unicode="&#x2d9;" glyph-name="dotaccent" horiz-adv-x="504" d="M176 768H328V636H176V768Z" />
<glyph unicode="&#x2da;" glyph-name="ring" horiz-adv-x="504" d="M252 614Q225 614 202 623T162 648T136 686T126 734Q126 759 135 781T162 820T202 845T252 855Q279 855 302 846T342 820T368 782T378 734Q378 708 369 686T342 648T302 623T252 614ZM252 684Q274
684 287 697T301 734Q301 757 288 770T252 784Q230 784 217 771T203 734Q203 711 216 698T252 684Z" />
<glyph unicode="&#x2db;" glyph-name="ogonek" horiz-adv-x="504" d="M278 -213Q212 -213 184 -187T155 -120Q155 -99 163 -81T185 -48T216 -21T251 0H328Q273 -48 273 -93Q273 -113 286 -122T319 -131Q329 -131 343 -129T362 -125V-196Q351 -202 328 -207T278 -213Z" />
<glyph unicode="&#x2dc;" glyph-name="tilde" horiz-adv-x="504" d="M65 627Q68 666 79 693T107 738T144 764T186 773Q206 773 223 767T256 754T284 741T309 735Q324 735 333 745T346 773H439Q436 734 425 707T397 662T359 636T317 627Q297 627 280 633T248 646T220
659T195 665Q164 665 158 627H65V627Z" />
<glyph unicode="&#x2dd;" glyph-name="hungarumlaut" horiz-adv-x="504" d="M332 793H466L396 621H287L332 793ZM138 793H273L201 621H92L138 793Z" />
</font>
</defs>
</svg>
